Открытые окна / Open Windows (Начо Вигалондо / Nacho Vigalondo) [2014, Испания, США, Триллер, WEB-DLRip] Dub (Line)

Ответить на тему
 
Автор Сообщение

user ®

Стаж: 7 лет 7 месяцев

Сообщений: 20008

Пост Пост: #1 от 23-Ноя-2014 09:10

[Цитировать]

Открытые окна / Open Windows
Страна: Испания, США
Жанр: Триллер
Год выпуска: 2014
Продолжительность: 01:40:40
Перевод: Профессиональный (дублированный) LINE
Cубтитры: нет
Оригинальная аудиодорожка: нет
Режиссер: Начо Вигалондо / Nacho Vigalondo
В ролях: Элайджа Вуд, Саша Грэй, Нил Мэскелл, Начо Вигалондо, Иван Гонсалес, Рэйчел Ариефф, Треванте Родс, Хайме Олиас, МакКатчен, Улисс Лопес
Описание: Ник — фанат актрисы Джилл Годдард и редактор ее неофициального сайта. Он выигрывает конкурс, главный приз в котором — ужин со звездой после презентации ее нового фильма. Во время онлайн репортажа с презентации, которая транслируется через сайт Ника, раздается звонок и человек, представившийся Кордом, объявляет ему, что ужин отменен. Ник даже не подозревает, что стал пешкой в игре, цель которой — убийство Джилл…
Доп. информация:

Сэмпл: http://multi-up.com/1014877
Качество видео: WEB-DLRip
Формат видео: AVI
Видео: 720x400 (1.80:1), 24 fps, XviD build 50 ~1875 kbps avg, 0.27 bit/pixel
Аудио: 48 kHz, AC3 Dolby Digital, 2/0 (L,R) ch, ~192 kbps
MediaInfo
General
Complete name : Open Windows.2014.D.WEB-DLRip.1400MB.avi
Format : AVI
Format/Info : Audio Video Interleave
File size : 1.46 GiB
Duration : 1h 40mn
Overall bit rate : 2 077 Kbps
Writing application : VirtualDubMod 1.5.10.2 (build 2540/release)
Writing library : VirtualDubMod build 2540/release
Video
ID : 0
Format : MPEG-4 Visual
Format profile : Advanced Simple@L5
Format settings, BVOP : 2
Format settings, QPel : No
Format settings, GMC : No warppoints
Format settings, Matrix : Default (MPEG)
Codec ID : XVID
Codec ID/Hint : XviD
Duration : 1h 40mn
Bit rate : 1 876 Kbps
Width : 720 pixels
Height : 400 pixels
Display aspect ratio : 16:9
Frame rate : 24.000 fps
Color space : YUV
Chroma subsampling : 4:2:0
Bit depth : 8 bits
Scan type : Progressive
Compression mode : Lossy
Bits/(Pixel*Frame) : 0.271
Stream size : 1.32 GiB (90%)
Writing library : XviD 1.2.1 (UTC 2008-12-04)
Audio
ID : 1
Format : AC-3
Format/Info : Audio Coding 3
Mode extension : CM (complete main)
Format settings, Endianness : Big
Codec ID : 2000
Duration : 1h 40mn
Bit rate mode : Constant
Bit rate : 192 Kbps
Channel(s) : 2 channels
Channel positions : Front: L R
Sampling rate : 48.0 KHz
Bit depth : 16 bits
Compression mode : Lossy
Stream size : 138 MiB (9%)
Alignment : Split accross interleaves
Interleave, duration : 42 ms (1.00 video frame)
Interleave, preload duration : 500 ms
Скриншоты
Скачать

Скачать торрент!

Как скачивать? · Что такое торрент? · Рейтинг и ограничения

Сайт не распространяет и не хранит электронные версии произведений, а лишь предоставляет доступ к создаваемому пользователями каталогу ссылок на торрент-файлы, которые содержат только списки хеш-сумм

[Профиль] [ЛС]
Показать сообщения:    
Ответить на тему

Текущее время: Сегодня 18:23

Часовой пояс: GMT + 4



Вы не можете начинать темы
Вы не можете отвечать на сообщения
Вы не можете редактировать свои сообщения
Вы не можете удалять свои сообщения
Вы не можете голосовать в опросах
Вы не можете прикреплять файлы к сообщениям
Вы не можете скачивать файлы