Человек ноября / The November Man (Роджер Дональдсон / Roger Donaldson) [2014, США, боевик, триллер, криминал, BDRip-AVC] Dub + Sub (Rus, Eng)

Ответить на тему
 
Автор Сообщение

user ®

Стаж: 7 лет 7 месяцев

Сообщений: 20008

Пост Пост: #1 от 23-Ноя-2014 06:00

[Цитировать]

Человек ноября
The November Man
«Бывших агентов не бывает»


Страна: США
Жанр: боевик, триллер, криминал
Год выпуска: 2014
Продолжительность: 01:48:21
Перевод: Профессиональный (полное дублирование) [Лицензия BD RUS]
Cубтитры: Русские, английские
Оригинальная аудиодорожка: нет
Режиссер:
Роджер Дональдсон / Roger Donaldson
В ролях:
Пирс Броснан, Люк Брейси, Ольга Куриленко, Билл Смитрович, Амила Терзимехич, Лазар Ристовски, Медиха Муслиович, Элайза Тейлор, Катерина Скорсоне, Аки Котабе
Описание:
Экс-агент ЦРУ, невольно вернувшись в дело, оказывается в эпицентре международной интриги, затеянной главами разведывательного управления. В их планах — внедрение во внутреннюю политику стран Восточной Европы через кандидата в президенты РФ с помощью шантажа грязным прошлым. На его совести — вторая вспышка войны на Северном Кавказе, жертвы, насилие. Но Питер Дэверо разгадывает тайны нечестной игры …

Релиз:
Автор рипа: Stalker oK
Сэмпл: multi-up
Качество видео: BDRip-AVC [Blu-Ray Remux 1080p HDCLUB]
Формат видео: MKV
Видео кодек: AVC
Аудио кодек: AC3
Видео: 1547 Кбит/сек, 1008*420 (2,40:1), в 23,976 кадр/сек, AVC
Аудио: Russian, 384 Кбит/сек, 48,0 КГц, 16 бит, 6 канала(ов), AC-3

MediaInfo
Общее
Уникальный идентификатор : 193327610645657908372643519384283689780 (0x91718B1F02A88AF48E7838AA881EB334)
Полное имя : G:\временные файлы\Человек ноября The November Man\Chelovek.nojabrja.2014.BDRip-AVC.Dub.1.45Gb...stalkerok.new-team.mkv
Формат : Matroska
Размер файла : 1,46 Гбайт
Продолжительность : 1 ч. 48 м.
Общий поток : 1933 Кбит/сек
Название фильма : The November Man, 2014 (New-Team) (Rip by Stalker oK)
Дата кодирования : UTC 2014-11-22 09:01:43
Программа кодирования : mkvmerge v6.1.0 ('Old Devil') built on Mar 4 2013 09:10:42
Библиотека кодирования : libebml v1.3.0 + libmatroska v1.4.0
Видео
Идентификатор : 1
Формат : AVC
Формат/Информация : Advanced Video Codec
Профиль формата : High@L4.1
Параметр CABAC формата : Да
Параметр ReFrames формата : 12 кадры
Идентификатор кодека : V_MPEG4/ISO/AVC
Продолжительность : 1 ч. 48 м.
Битрейт : 1547 Кбит/сек
Ширина : 1008 пикс.
Высота : 420 пикс.
Соотношение сторон : 2,40:1
Частота кадров : 23,976 кадр/сек
Цветовое пространство : YUV
Подвыборка цветности : 4:2:0
Битовая глубина : 8 бит
Тип развёртки : Прогрессивная
Бит/(Пиксели*Кадры) : 0.152
Размер потока : 1,14 Гбайт (78%)
Библиотека кодирования : x264 core 142 r2491kMod 24e4fed
Настройки программы : cabac=1 / ref=12 / deblock=1:-3:-3 / analyse=0x3:0x133 / me=umh / subme=11 / psy=1 / fade_compensate=0.00 / psy_rd=1.00:0.10 / mixed_ref=1 / me_range=32 / chroma_me=1 / trellis=2 / 8x8dct=1 / cqm=0 / deadzone=21,11 / fast_pskip=0 / chroma_qp_offset=-3 / threads=12 / lookahead_threads=3 / sliced_threads=0 / nr=0 / decimate=0 / interlaced=0 / bluray_compat=0 / constrained_intra=0 / fgo=0 / bframes=13 / b_pyramid=2 / b_adapt=2 / b_bias=0 / direct=3 / weightb=1 / open_gop=0 / weightp=2 / keyint=240 / keyint_min=23 / scenecut=40 / intra_refresh=0 / rc_lookahead=60 / rc=2pass / mbtree=0 / bitrate=1547 / ratetol=1.0 / qcomp=0.70 / qpmin=0 / qpmax=69 / qpstep=4 / cplxblur=20.0 / qblur=0.5 / vbv_maxrate=50000 / vbv_bufsize=62500 / nal_hrd=none / filler=0 / ip_ratio=1.40 / pb_ratio=1.30 / aq=3:0.90
Аудио
Идентификатор : 2
Формат : AC-3
Формат/Информация : Audio Coding 3
Расширение режима : CM (complete main)
Идентификатор кодека : A_AC3
Продолжительность : 1 ч. 48 м.
Вид битрейта : Постоянный
Битрейт : 384 Кбит/сек
Канал(ы) : 6 канала(ов)
Расположение каналов : Front: L C R, Side: L R, LFE
Частота : 48,0 КГц
Битовая глубина : 16 бит
Метод сжатия : С потерями
Размер потока : 298 Мбайт (20%)
Язык : Russian
Текст #1
Идентификатор : 3
Формат : UTF-8
Идентификатор кодека : S_TEXT/UTF8
Идентификатор кодека/Информация : UTF-8 Plain Text
Язык : Russian
Текст #2
Идентификатор : 4
Формат : UTF-8
Идентификатор кодека : S_TEXT/UTF8
Идентификатор кодека/Информация : UTF-8 Plain Text
Язык : English
Текст #3
Идентификатор : 5
Формат : UTF-8
Идентификатор кодека : S_TEXT/UTF8
Идентификатор кодека/Информация : UTF-8 Plain Text
Заголовок : SDH
Язык : English
Меню
00:00:00.000 : :Chapter 1
00:05:37.170 : :Chapter 2
00:08:16.329 : :Chapter 3
00:11:00.158 : :Chapter 4
00:16:43.460 : :Chapter 5
00:20:16.006 : :Chapter 6
00:23:32.617 : :Chapter 7
00:25:50.713 : :Chapter 8
00:30:24.364 : :Chapter 9
00:35:07.396 : :Chapter 10
00:38:43.987 : :Chapter 11
00:44:36.757 : :Chapter 12
00:49:26.213 : :Chapter 13
00:52:29.646 : :Chapter 14
00:55:58.521 : :Chapter 15
01:01:46.869 : :Chapter 16
01:06:25.021 : :Chapter 17
01:10:51.037 : :Chapter 18
01:15:18.055 : :Chapter 19
01:20:56.643 : :Chapter 20
01:25:19.823 : :Chapter 21
01:30:13.783 : :Chapter 22
01:34:57.942 : :Chapter 23
01:42:54.417 : :Chapter 24
01:48:21.243 : :Chapter 25
Скриншоты
Скачать

Скачать торрент!

Как скачивать? · Что такое торрент? · Рейтинг и ограничения

Сайт не распространяет и не хранит электронные версии произведений, а лишь предоставляет доступ к создаваемому пользователями каталогу ссылок на торрент-файлы, которые содержат только списки хеш-сумм

[Профиль] [ЛС]
Показать сообщения:    
Ответить на тему

Текущее время: Сегодня 06:30

Часовой пояс: GMT + 4



Вы не можете начинать темы
Вы не можете отвечать на сообщения
Вы не можете редактировать свои сообщения
Вы не можете удалять свои сообщения
Вы не можете голосовать в опросах
Вы не можете прикреплять файлы к сообщениям
Вы не можете скачивать файлы