Если я останусь / If I Stay (Р.Дж. Катлер / R.J. Cutler) [2014 г., США, драма, BDRip-AVC] Dub + Original Eng + Sub (Rus, Ukr, Eng)

Ответить на тему
 
Автор Сообщение

user ®

Стаж: 7 лет 7 месяцев

Сообщений: 20008

Пост Пост: #1 от 23-Ноя-2014 06:00

[Цитировать]

-Если я останусь / If I Stay«Жить, чтобы любить» Страна: США
Студия: DiNovi Pictures, Metro-Goldwyn-Mayer (MGM), New Line Cinema
Жанр: Драма
Год выпуска: 2014
Продолжительность: 01:46:40-Перевод: Профессиональный (полное дублирование), BD EUR
Оригинальная аудиодорожка: английский
Cубтитры: русские, украинские, английские
Режиссер: Р.Дж. Катлер / R.J. Cutler
В ролях: Хлоя Грейс Морец, Мирей Инос, Джейми Блэкли, Джошуа Леонард, Лиана Либерато, Стейси Кич, Габриель Роз, Джейкоб Дейвис, Али Милнер, Аиша Хиндс
Описание: Мия — талантливая девушка, влюбленная в классическую музыку, в свою виолончель и рокера Адама. Но после автокатастрофы Мия оказывается в коме. Пока тело девушки лежит в больнице, ее душа должна решить, хочет ли она жить дальше или же лучше отправиться в мир иной вслед за своими родными.-
Сэмпл: скачать-Релиз от -
Автор рипа: Elheym
Качество: BDRip-AVC (источник: / Blu-ray EUR [IF_I_STAY_HDCLUB] / 1080p)
Контейнер: MKV
Видео: 1152x480 (2.40:1), 23.976 fps, MPEG-4 AVC, ~3255 kbps avg, 0.246 bit/pixel
Аудио #1: Русский: AC3, 5.1, 48 kHz, ~448 Кбит/с | Профессиональный (полное дублирование), BD EUR |
Аудио #2: Английский: AC3, 5.1, 48 kHz, ~448 Кбит/с | Оригинал |
Субтитры: Русские (полные), Украинские (полные), Английские (полные)
Главы: Присутствуют, сохранены оригинальные
MediaInfo
Уникальный идентификатор : 247143017978139284921482612972247687491 (0xB9EE038E19C12F56A36FF7122215A143)
Полное имя : If.I.Stay.2014.DUAL.BDRip-AVC.x264.AC3.-HQCLUB.mkv
Формат : Matroska
Версия формата : Version 2
Размер файла : 3,16 Гбайт
Продолжительность : 1 ч. 46 м.
Общий поток : 4235 Кбит/сек
Дата кодирования : UTC 2014-11-22 13:45:28
Программа кодирования : mkvmerge v5.2.0 ('I can't explain') built on Dec 18 2011 18:12:03
Библиотека кодирования : libebml v1.2.3 + libmatroska v1.3.0
Видео
Идентификатор : 1
Формат : AVC
Формат/Информация : Advanced Video Codec
Профиль формата : High@L4.1
Параметр CABAC формата : Да
Параметр ReFrames формата : 12 кадров
Идентификатор кодека : V_MPEG4/ISO/AVC
Продолжительность : 1 ч. 46 м.
Битрейт : 3255 Кбит/сек
Ширина : 1152 пикселя
Высота : 480 пикселей
Соотношение сторон : 2,40:1
Режим частоты кадров : Постоянный
Частота кадров : 23,976 кадра/сек
Цветовое пространство : YUV
Субдискретизация насыщенности : 4:2:0
Битовая глубина : 8 бит
Тип развёртки : Прогрессивная
Бит/(Пиксели*Кадры) : 0.246
Размер потока : 2,43 Гбайт (77%)
Заголовок : Если я останусь / If I Stay (2014) BDRip-AVC by HQCLUB [Elheym
Библиотека кодирования : x264 core 142 r2479kMod dd79a61
Настройки программы : cabac=1 / ref=12 / deblock=1:-3:-2 / analyse=0x3:0x133 / me=umh / subme=11 / psy=1 / fade_compensate=0.00 / psy_rd=1.06:0.00 / mixed_ref=1 / me_range=32 / chroma_me=1 / trellis=2 / 8x8dct=1 / cqm=0 / deadzone=21,11 / fast_pskip=0 / chroma_qp_offset=-4 / threads=6 / lookahead_threads=1 / sliced_threads=0 / nr=0 / decimate=0 / interlaced=0 / bluray_compat=0 / constrained_intra=0 / fgo=0 / bframes=15 / b_pyramid=2 / b_adapt=2 / b_bias=0 / direct=3 / weightb=1 / open_gop=0 / weightp=2 / keyint=230 / keyint_min=23 / scenecut=40 / intra_refresh=0 / rc_lookahead=40 / rc=crf / mbtree=1 / crf=16.1500 / qcomp=0.70 / qpmin=0 / qpmax=69 / qpstep=4 / vbv_maxrate=50000 / vbv_bufsize=62500 / crf_max=0.0 / nal_hrd=none / filler=0 / ip_ratio=1.40 / aq=2:0.90
Язык : English
Default : Да
Forced : Нет
Аудио #1
Идентификатор : 2
Формат : AC-3
Формат/Информация : Audio Coding 3
Расширение режима : CM (complete main)
Параметр Endianness формата : Big
Идентификатор кодека : A_AC3
Продолжительность : 1 ч. 46 м.
Вид битрейта : Постоянный
Битрейт : 448 Кбит/сек
Каналы : 6 каналов
Расположение каналов : Front: L C R, Side: L R, LFE
Частота : 48,0 КГц
Битовая глубина : 16 бит
Метод сжатия : С потерями
Размер потока : 342 Мбайт (11%)
Заголовок : АС3 5.1 @ 448 kbps - Dub, BD EUR
Язык : Russian
Default : Нет
Forced : Нет
Аудио #2
Идентификатор : 3
Формат : AC-3
Формат/Информация : Audio Coding 3
Расширение режима : CM (complete main)
Параметр Endianness формата : Big
Идентификатор кодека : A_AC3
Продолжительность : 1 ч. 46 м.
Вид битрейта : Постоянный
Битрейт : 448 Кбит/сек
Каналы : 6 каналов
Расположение каналов : Front: L C R, Side: L R, LFE
Частота : 48,0 КГц
Битовая глубина : 16 бит
Метод сжатия : С потерями
Размер потока : 342 Мбайт (11%)
Заголовок : АС3 5.1 @ 448 kbps - Original
Язык : English
Default : Нет
Forced : Нет
Текст #1
Идентификатор : 4
Формат : UTF-8
Идентификатор кодека : S_TEXT/UTF8
Идентификатор кодека/Информация : UTF-8 Plain Text
Заголовок : Full
Язык : Russian
Default : Нет
Forced : Нет
Текст #2
Идентификатор : 5
Формат : UTF-8
Идентификатор кодека : S_TEXT/UTF8
Идентификатор кодека/Информация : UTF-8 Plain Text
Заголовок : Full
Язык : Ukrainian
Default : Нет
Forced : Нет
Текст #3
Идентификатор : 6
Формат : UTF-8
Идентификатор кодека : S_TEXT/UTF8
Идентификатор кодека/Информация : UTF-8 Plain Text
Заголовок : Full
Язык : English
Default : Нет
Forced : Нет
Меню
00:00:00.000 : :Chapter 01
00:03:20.366 : :Chapter 03
00:07:23.901 : :Chapter 05
00:11:31.607 : :Chapter 07
00:14:43.716 : :Chapter 09
00:19:12.484 : :Chapter 11
00:23:19.606 : :Chapter 13
00:25:19.267 : :Chapter 15
00:27:26.436 : :Chapter 17
00:30:46.010 : :Chapter 19
00:32:11.596 : :Chapter 21
00:34:38.367 : :Chapter 23
00:37:21.906 : :Chapter 25
00:40:41.188 : :Chapter 27
00:44:02.222 : :Chapter 29
00:46:58.899 : :Chapter 31
00:49:07.819 : :Chapter 33
00:52:06.331 : :Chapter 35
00:55:42.756 : :Chapter 37
00:59:01.579 : :Chapter 39
01:00:42.347 : :Chapter 41
01:05:39.310 : :Chapter 43
01:10:10.039 : :Chapter 45
01:13:48.924 : :Chapter 47
01:16:18.407 : :Chapter 49
01:18:54.730 : :Chapter 51
01:24:05.415 : :Chapter 53
01:27:44.467 : :Chapter 55
01:29:50.176 : :Chapter 57
01:33:37.028 : :Chapter 59
01:38:16.307 : :Chapter 61
01:40:25.352 : :Chapter 63
01:46:39.976 : :Chapter 64
x264 log
x264 [info]: frame I:1153 Avg QP:12.45 size:116480
x264 [info]: frame P:28748 Avg QP:16.48 size: 38755
x264 [info]: frame B:123551 Avg QP:18.17 size: 11498
x264 [info]: consecutive B-frames: 1.2% 1.5% 5.9% 12.0% 13.4% 46.8% 6.5% 1.9% 1.9% 1.2% 1.3% 0.9% 1.9% 2.0% 0.8% 0.9%
x264 [info]: ref P L0: 42.1% 8.5% 19.0% 6.9% 6.4% 4.1% 4.2% 2.1% 2.2% 1.5% 1.6% 1.3% 0.1% 0.0%
x264 [info]: ref B L0: 67.9% 13.5% 6.7% 3.5% 2.4% 2.1% 1.6% 1.0% 0.8% 0.5% 0.2%
x264 [info]: ref B L1: 91.8% 8.2%
Скриншоты
Скачать

Скачать торрент!

Как скачивать? · Что такое торрент? · Рейтинг и ограничения

Сайт не распространяет и не хранит электронные версии произведений, а лишь предоставляет доступ к создаваемому пользователями каталогу ссылок на торрент-файлы, которые содержат только списки хеш-сумм

[Профиль] [ЛС]
Показать сообщения:    
Ответить на тему

Текущее время: Сегодня 02:10

Часовой пояс: GMT + 4



Вы не можете начинать темы
Вы не можете отвечать на сообщения
Вы не можете редактировать свои сообщения
Вы не можете удалять свои сообщения
Вы не можете голосовать в опросах
Вы не можете прикреплять файлы к сообщениям
Вы не можете скачивать файлы