Сага: Пятница 13-е / Friday the 13th Saga (Шон С. Каннингэм / Sean S. Cunningham, Стив Майнер / Steve Miner, Джозеф Зито / Joseph Zito, Дэнни Стейнманн / Danny Steinmann, Том МакЛафлин / Tom McLoughlin) [1980-1989, США, ужасы, BDRip 1080p]

Ответить на тему
 
Автор Сообщение

user ®

Стаж: 7 лет 7 месяцев

Сообщений: 20008

Пост Пост: #1 от 21-Ноя-2014 23:10

[Цитировать]

Сага: Пятница 13-е / The Friday the 13th Saga-
-
-
Пятница 13-е / Friday the 13th 1980:
Год выпуска: 1980
Страна: США
Жанр: Ужасы, триллер
Продолжительность: 01:35:27
Перевод: Профессиональный (многоголосый закадровый) Позитив
Перевод: Профессиональный (двухголосый закадровый) М. Иванова и П. Пашут
Перевод: Авторский (одноголосый) Ю. Живов
Оригинальная аудиодорожка: Английский
Субтитры: Английские--Режиссер: Шон С. Каннингэм /Sean S. Cunningham/
В ролях: Бетси Палмер /Betsy Palmer/, Кевин Бэйкон /Kevin Bacon/, Эдриенн Кинг /Adrienne King/, Хэрри Кросби /Harry Crosby/, Лори Бартрэм /Laurie Bartram/, Марк Нелсон /Mark Nelson/--Описание: Их предупреждали... Их прокляли... В пятницу, 13-ого... их уже ничего не спасет... Уютный лагерь "Хрустальное озеро" открывается! Вожатые ожидают летнюю смену, приготовив для юных гостей увлекательные мероприятия и забавные игры. Но заняты они больше любовью и развлечениями чем детьми. И один из отдыхающих, мальчонка по имени Джейсон тонет в озере. Но Джейсон восстает из мертвых и возвращается в лагерь чтобы начать новую игру. Игру, о которой вожатые еще не знают: она будет пользоваться большой популярностью в этом сезоне. Игра называется - "Убей вожатого!".- -Тип релиза: BDRip 1080p
Контейнер: MKV
Видео кодек: H264
Аудио кодек: AC3
Видео: MPEG4 Video (H264), 1920x1080, 23.976fps, 14.0 Mbps
Аудио #1: Русский - Dolby AC3, 48000 Hz, 2ch, 192 kbps - Многоголосый - Позитив
Аудио #2: Русский - Dolby AC3, 48000 Hz, 2ch, 192 kbps - Двухголосый - М. Иванова и П. Пашут
Аудио #3: Русский - Dolby AC3, 48000 Hz, 6ch, 640 kbps - Одноголосый - Ю. Живов
Аудио #4: Английский - Dolby AC3, 48000 Hz, 6ch, 640 kbps
Формат субтитров: softsub (SRT)
--Сэмпл-MediaInfo:
General
Unique ID : 207493552781337831840553575784271270789 (0x9C19CDFDFE6701C887A734F5CC3F5385)
Complete name : F:\Torrent 2\1980-1989.Friday.13.part.1-8.likko\Пятница 13 – Часть 1.mkv
Format : Matroska
Format version : Version 4 / Version 2
File size : 10.4 GiB
Duration : 1h 35mn
Overall bit rate : 15.7 Mbps
Encoded date : UTC 2014-11-18 12:30:20
Writing application : mkvmerge v7.1.0 ('Good Love') 32bit built on Jul 27 2014 12:59:18
Writing library : libebml v1.3.0 + libmatroska v1.4.1
DURATION : 01:31:58.554000000
NUMBER_OF_FRAMES : 568
NUMBER_OF_BYTES : 20490
_STATISTICS_WRITING_APP : mkvmerge v7.1.0 ('Good Love') 32bit built on Jul 27 2014 12:59:18
_STATISTICS_WRITING_DATE_UTC : 2014-11-18 12:30:20
_STATISTICS_TAGS : BPS DURATION NUMBER_OF_FRAMES NUMBER_OF_BYTES
Video
ID : 1
Format : AVC
Format/Info : Advanced Video Codec
Format profile : High@L4.1
Format settings, CABAC : Yes
Format settings, ReFrames : 3 frames
Codec ID : V_MPEG4/ISO/AVC
Duration : 1h 35mn
Bit rate : 14.0 Mbps
Width : 1 920 pixels
Height : 1 080 pixels
Display aspect ratio : 16:9
Frame rate mode : Constant
Frame rate : 23.976 fps
Color space : YUV
Chroma subsampling : 4:2:0
Bit depth : 8 bits
Scan type : Progressive
Bits/(Pixel*Frame) : 0.282
Stream size : 9.13 GiB (87%)
Title : Пятница 13 / Friday the 13th (1980) / renta23
Writing library : x264 core 125 r2208 d9d2288
Encoding settings : cabac=1 / ref=4 / deblock=1:-1:-1 / analyse=0x3:0x133 / me=umh / subme=11 / psy=1 / psy_rd=1.15:0.25 / mixed_ref=1 / me_range=24 / chroma_me=1 / trellis=2 / 8x8dct=1 / cqm=0 / deadzone=21,11 / fast_pskip=0 / chroma_qp_offset=-4 / threads=12 / lookahead_threads=2 / sliced_threads=0 / nr=0 / decimate=1 / interlaced=0 / bluray_compat=0 / constrained_intra=0 / bframes=6 / b_pyramid=1 / b_adapt=2 / b_bias=0 / direct=3 / weightb=1 / open_gop=0 / weightp=2 / keyint=250 / keyint_min=23 / scenecut=40 / intra_refresh=0 / rc_lookahead=50 / rc=2pass / mbtree=1 / bitrate=14000 / ratetol=1.0 / qcomp=0.60 / qpmin=0 / qpmax=69 / qpstep=4 / cplxblur=20.0 / qblur=0.5 / ip_ratio=1.40 / aq=1:1.00
Language : English
Default : Yes
Forced : No
Audio #1
ID : 2
Format : AC-3
Format/Info : Audio Coding 3
Mode extension : CM (complete main)
Format settings, Endianness : Big
Codec ID : A_AC3
Duration : 1h 35mn
Bit rate mode : Constant
Bit rate : 192 Kbps
Channel(s) : 2 channels
Channel positions : Front: L R
Sampling rate : 48.0 KHz
Bit depth : 16 bits
Compression mode : Lossy
Stream size : 131 MiB (1%)
Title : Многоголосый - Позитив
Language : Russian
Default : Yes
Forced : No
Audio #2
ID : 3
Format : AC-3
Format/Info : Audio Coding 3
Mode extension : CM (complete main)
Format settings, Endianness : Big
Codec ID : A_AC3
Duration : 1h 35mn
Bit rate mode : Constant
Bit rate : 640 Kbps
Channel(s) : 6 channels
Channel positions : Front: L C R, Side: L R, LFE
Sampling rate : 48.0 KHz
Bit depth : 16 bits
Compression mode : Lossy
Stream size : 437 MiB (4%)
Title : Одноголосый - Ю. Живов
Language : Russian
Default : No
Forced : No
Audio #3
ID : 4
Format : AC-3
Format/Info : Audio Coding 3
Mode extension : CM (complete main)
Format settings, Endianness : Big
Codec ID : A_AC3
Duration : 1h 35mn
Bit rate mode : Constant
Bit rate : 192 Kbps
Channel(s) : 2 channels
Channel positions : Front: L R
Sampling rate : 48.0 KHz
Bit depth : 16 bits
Compression mode : Lossy
Stream size : 131 MiB (1%)
Title : Двухголосый - М. Иванова и П. Пашут
Language : Russian
Default : No
Forced : No
Audio #4
ID : 5
Format : AC-3
Format/Info : Audio Coding 3
Mode extension : CM (complete main)
Format settings, Endianness : Big
Codec ID : A_AC3
Duration : 1h 35mn
Bit rate mode : Constant
Bit rate : 640 Kbps
Channel(s) : 6 channels
Channel positions : Front: L C R, Side: L R, LFE
Sampling rate : 48.0 KHz
Bit depth : 16 bits
Compression mode : Lossy
Stream size : 437 MiB (4%)
Language : English
Default : No
Forced : No
Text
ID : 6
Format : UTF-8
Codec ID : S_TEXT/UTF8
Codec ID/Info : UTF-8 Plain Text
Language : English
Default : Yes
Forced : No
Menu
00:00:00.000 : en:Chapter 01
00:06:27.804 : en:Chapter 02
00:12:27.371 : en:Chapter 03
00:19:08.480 : en:Chapter 04
00:22:30.140 : en:Chapter 05
00:29:47.494 : en:Chapter 06
00:36:26.434 : en:Chapter 07
00:47:00.734 : en:Chapter 08
00:53:08.810 : en:Chapter 09
00:57:10.218 : en:Chapter 10
01:04:43.337 : en:Chapter 11
01:10:07.036 : en:Chapter 12
01:15:26.063 : en:Chapter 13
01:22:33.198 : en:Chapter 14
01:30:58.995 : en:Chapter 15

Пятница 13-е часть 2 / Friday the 13th part 2 1981:
Год выпуска: 1981
Страна: США
Жанр: Ужасы, триллер
Продолжительность: 01:26:59
Перевод: Профессиональный (многоголосый закадровый) Позитив
Перевод: Авторский (одноголосый) Ю. Живов, А. Михалев, Л. Володарский
Оригинальная аудиодорожка: Английский
Субтитры: Английские--Режиссер: Стив Майнер /Steve Miner/
В ролях: Эми Стил /Amy Steel/, Джон Фьюри /John Furey/, Эдриенн Кинг /Adrienne King/, Керстен Бэйкер /Kirsten Baker/, Бетси Палмер /Betsy Palmer/, Стю Чарно /Stu Charno/--Описание: Через пять лет после трагических событий первой части, новый предприниматель решает возродить печально известный лагерь у Хрустального Озера. Всё бы ничего, да только таинственные убийства, время от времени случающиеся в окрестных лесах не дают умереть зловещей легенде о проклятии, довлеющем над Озером. На лагерь спускается ночь, а вместе с ней приходят ужас и страх. Выживет ли кто-нибудь в новой кровавой мясорубке?- -Тип релиза: BDRip 1080p
Контейнер: MKV
Видео кодек: H264
Аудио кодек: AC3
Видео: MPEG4 Video (H264), 1920x1080, 23.976fps, 14.0 Mbps
Аудио #1: Русский - Dolby AC3, 48000 Hz, 2ch, 192 kbps - Многоголосый - Позитив
Аудио #2: Русский - Dolby AC3, 48000 Hz, 6ch, 640 kbps - Одноголосый - Ю. Живов
Аудио #3: Русский - Dolby AC3, 48000 Hz, 2ch, 192 kbps - Одноголосый - А. Михалев
Аудио #4: Русский - Dolby AC3, 48000 Hz, 2ch, 192 kbps - Одноголосый - Л. Володарский
Аудио #5: Английский - Dolby AC3, 48000 Hz, 6ch, 640 kbps
Формат субтитров: softsub (SRT)
--Сэмпл-MediaInfo:
General
Unique ID : 196007336726494618676100618581252165521 (0x9375A3D147C56081AEA8126319A6CF91)
Complete name : F:\Torrent 2\1980-1989.Friday.13.part.1-8.likko\Пятница 13 – Часть 2.mkv
Format : Matroska
Format version : Version 4 / Version 2
File size : 9.63 GiB
Duration : 1h 26mn
Overall bit rate : 15.9 Mbps
Encoded date : UTC 2014-11-18 12:37:54
Writing application : mkvmerge v7.1.0 ('Good Love') 32bit built on Jul 27 2014 12:59:18
Writing library : libebml v1.3.0 + libmatroska v1.4.1
DURATION : 01:24:05.124000000
NUMBER_OF_FRAMES : 742
NUMBER_OF_BYTES : 21081
_STATISTICS_WRITING_APP : mkvmerge v7.1.0 ('Good Love') 32bit built on Jul 27 2014 12:59:18
_STATISTICS_WRITING_DATE_UTC : 2014-11-18 12:37:54
_STATISTICS_TAGS : BPS DURATION NUMBER_OF_FRAMES NUMBER_OF_BYTES
Video
ID : 1
Format : AVC
Format/Info : Advanced Video Codec
Format profile : High@L4.1
Format settings, CABAC : Yes
Format settings, ReFrames : 3 frames
Codec ID : V_MPEG4/ISO/AVC
Duration : 1h 26mn
Bit rate : 14.0 Mbps
Width : 1 920 pixels
Height : 1 080 pixels
Display aspect ratio : 16:9
Frame rate mode : Constant
Frame rate : 23.976 fps
Color space : YUV
Chroma subsampling : 4:2:0
Bit depth : 8 bits
Scan type : Progressive
Bits/(Pixel*Frame) : 0.282
Stream size : 8.31 GiB (86%)
Title : Пятница 13 – Часть 2 / Friday the 13th Part 2 (1981) / renta23
Writing library : x264 core 125 r2208 d9d2288
Encoding settings : cabac=1 / ref=4 / deblock=1:-1:-1 / analyse=0x3:0x133 / me=umh / subme=11 / psy=1 / psy_rd=1.15:0.25 / mixed_ref=1 / me_range=24 / chroma_me=1 / trellis=2 / 8x8dct=1 / cqm=0 / deadzone=21,11 / fast_pskip=0 / chroma_qp_offset=-4 / threads=12 / lookahead_threads=2 / sliced_threads=0 / nr=0 / decimate=1 / interlaced=0 / bluray_compat=0 / constrained_intra=0 / bframes=6 / b_pyramid=1 / b_adapt=2 / b_bias=0 / direct=3 / weightb=1 / open_gop=0 / weightp=2 / keyint=250 / keyint_min=23 / scenecut=40 / intra_refresh=0 / rc_lookahead=50 / rc=2pass / mbtree=1 / bitrate=14000 / ratetol=1.0 / qcomp=0.60 / qpmin=0 / qpmax=69 / qpstep=4 / cplxblur=20.0 / qblur=0.5 / ip_ratio=1.40 / aq=1:1.00
Language : English
Default : Yes
Forced : No
Audio #1
ID : 2
Format : AC-3
Format/Info : Audio Coding 3
Mode extension : CM (complete main)
Format settings, Endianness : Big
Codec ID : A_AC3
Duration : 1h 26mn
Bit rate mode : Constant
Bit rate : 192 Kbps
Channel(s) : 2 channels
Channel positions : Front: L R
Sampling rate : 48.0 KHz
Bit depth : 16 bits
Compression mode : Lossy
Stream size : 119 MiB (1%)
Title : Многоголосый (Позитив)
Language : Russian
Default : Yes
Forced : No
Audio #2
ID : 3
Format : AC-3
Format/Info : Audio Coding 3
Mode extension : CM (complete main)
Format settings, Endianness : Big
Codec ID : A_AC3
Duration : 1h 26mn
Bit rate mode : Constant
Bit rate : 640 Kbps
Channel(s) : 6 channels
Channel positions : Front: L C R, Side: L R, LFE
Sampling rate : 48.0 KHz
Bit depth : 16 bits
Compression mode : Lossy
Stream size : 398 MiB (4%)
Title : Одноголосый (Ю. Живов)
Language : Russian
Default : No
Forced : No
Audio #3
ID : 4
Format : AC-3
Format/Info : Audio Coding 3
Mode extension : CM (complete main)
Format settings, Endianness : Big
Codec ID : A_AC3
Duration : 1h 26mn
Bit rate mode : Constant
Bit rate : 192 Kbps
Channel(s) : 2 channels
Channel positions : Front: L R
Sampling rate : 48.0 KHz
Bit depth : 16 bits
Compression mode : Lossy
Stream size : 119 MiB (1%)
Title : Одноголосый (А. Михалев) - VHS
Language : Russian
Default : No
Forced : No
Audio #4
ID : 5
Format : AC-3
Format/Info : Audio Coding 3
Mode extension : CM (complete main)
Format settings, Endianness : Big
Codec ID : A_AC3
Duration : 1h 26mn
Bit rate mode : Constant
Bit rate : 192 Kbps
Channel(s) : 2 channels
Channel positions : Front: L R
Sampling rate : 48.0 KHz
Bit depth : 16 bits
Compression mode : Lossy
Stream size : 119 MiB (1%)
Title : Одноголосый (Л. Володарский) - VHS
Language : Russian
Default : No
Forced : No
Audio #5
ID : 6
Format : AC-3
Format/Info : Audio Coding 3
Mode extension : CM (complete main)
Format settings, Endianness : Big
Codec ID : A_AC3
Duration : 1h 26mn
Bit rate mode : Constant
Bit rate : 640 Kbps
Channel(s) : 6 channels
Channel positions : Front: L C R, Side: L R, LFE
Sampling rate : 48.0 KHz
Bit depth : 16 bits
Compression mode : Lossy
Stream size : 398 MiB (4%)
Language : English
Default : No
Forced : No
Text #1
ID : 7
Format : UTF-8
Codec ID : S_TEXT/UTF8
Codec ID/Info : UTF-8 Plain Text
Language : English
Default : Yes
Forced : No
Text #2
ID : 8
Format : UTF-8
Codec ID : S_TEXT/UTF8
Codec ID/Info : UTF-8 Plain Text
Language : English
Default : No
Forced : No
Menu
00:00:00.000 : en:Chapter 01
00:12:02.888 : en:Chapter 02
00:19:00.556 : en:Chapter 03
00:24:22.002 : en:Chapter 04
00:31:56.664 : en:Chapter 05
00:38:05.616 : en:Chapter 06
00:42:46.647 : en:Chapter 07
00:51:23.997 : en:Chapter 08
00:54:32.602 : en:Chapter 09
01:01:13.378 : en:Chapter 10
01:05:34.722 : en:Chapter 11
01:13:27.861 : en:Chapter 12
01:21:56.912 : en:Chapter 13
01:25:13.066 : en:Chapter 14

Пятница 13-е часть 3 / Friday the 13th part 3 1982:
Год выпуска: 1982
Страна: США
Жанр: Ужасы, триллер
Продолжительность: 01:35:14
Перевод: Профессиональный (многоголосый закадровый) Позитив
Перевод: Авторский (одноголосый) Ю. Живов, А. Гаврилов, С. Кузнецов
Оригинальная аудиодорожка: Английский
Субтитры: Английские--Режиссер: Стив Майнер /Steve Miner/
В ролях: Дана Киммелл /Dana Kimmell/, Пол Кратка /Paul Kratka/, Ричард Брукер /Richard Brooker/, Ник Сэвэдж /Nick Savage/, Рэйчел Ховард /Rachel Howard/, Ларри Зернер /Larry Zerner/--Описание: Кристальное озеро впору переименовать в кровавое море! Резня продолжается. Джейсон - непобедимый, примеривший в этом фильме хоккейную маску с дырочками для облегчения дыхания, и с тех пор ее не снимающий и не предполагает что спустя каких-то 20 лет ему предстоит сражаться с Фредди Крюгером. Но сейчас это его территория. Он король, а значит ни один подросток не смеет радоваться и оголяться в районе озера без его участия!- -Тип релиза: BDRip 1080p
Контейнер: MKV
Видео кодек: H264
Аудио кодек: AC3
Видео: MPEG4 Video (H264), 1920x816, 23.976fps, 14.0 Mbps
Аудио #1: Русский - Dolby AC3, 48000 Hz, 2ch, 192 kbps - Многоголосый - Позитив
Аудио #2: Русский - Dolby AC3, 48000 Hz, 6ch, 640 kbps - Одноголосый - Ю. Живов
Аудио #3: Русский - Dolby AC3, 48000 Hz, 6ch, 640 kbps - Одноголосый - А. Гаврилов
Аудио #4: Русский - Dolby AC3, 48000 Hz, 2ch, 192 kbps - Одноголосый - С. Кузнецов
Аудио #5: Английский - Dolby AC3, 48000 Hz, 6ch, 640 kbps
Формат субтитров: softsub (SRT)
--Сэмпл-MediaInfo:
General
Unique ID : 242059073082456298195496782731347144642 (0xB61AE1B823FC4B27985EAB7417EAAFC2)
Complete name : F:\Torrent 2\1980-1989.Friday.13.part.1-8.likko\Пятница 13 – Часть 3.mkv
Format : Matroska
Format version : Version 4 / Version 2
File size : 10.8 GiB
Duration : 1h 35mn
Overall bit rate : 16.2 Mbps
Encoded date : UTC 2014-11-18 12:44:55
Writing application : mkvmerge v7.1.0 ('Good Love') 32bit built on Jul 27 2014 12:59:18
Writing library : libebml v1.3.0 + libmatroska v1.4.1
DURATION : 01:30:31.926000000
NUMBER_OF_FRAMES : 797
NUMBER_OF_BYTES : 23575
_STATISTICS_WRITING_APP : mkvmerge v7.1.0 ('Good Love') 32bit built on Jul 27 2014 12:59:18
_STATISTICS_WRITING_DATE_UTC : 2014-11-18 12:44:55
_STATISTICS_TAGS : BPS DURATION NUMBER_OF_FRAMES NUMBER_OF_BYTES
Video
ID : 1
Format : AVC
Format/Info : Advanced Video Codec
Format profile : High@L4.1
Format settings, CABAC : Yes
Format settings, ReFrames : 3 frames
Codec ID : V_MPEG4/ISO/AVC
Duration : 1h 35mn
Bit rate : 14.0 Mbps
Width : 1 920 pixels
Height : 816 pixels
Display aspect ratio : 2.35:1
Frame rate mode : Constant
Frame rate : 23.976 fps
Color space : YUV
Chroma subsampling : 4:2:0
Bit depth : 8 bits
Scan type : Progressive
Bits/(Pixel*Frame) : 0.373
Stream size : 9.09 GiB (84%)
Title : Пятница 13 – Часть 3 / Friday the 13th Part III (1982) / renta23
Writing library : x264 core 125 r2208 d9d2288
Encoding settings : cabac=1 / ref=4 / deblock=1:-1:-1 / analyse=0x3:0x133 / me=umh / subme=11 / psy=1 / psy_rd=1.15:0.25 / mixed_ref=1 / me_range=24 / chroma_me=1 / trellis=2 / 8x8dct=1 / cqm=0 / deadzone=21,11 / fast_pskip=0 / chroma_qp_offset=-4 / threads=12 / lookahead_threads=2 / sliced_threads=0 / nr=0 / decimate=1 / interlaced=0 / bluray_compat=0 / constrained_intra=0 / bframes=6 / b_pyramid=1 / b_adapt=2 / b_bias=0 / direct=3 / weightb=1 / open_gop=0 / weightp=2 / keyint=250 / keyint_min=23 / scenecut=40 / intra_refresh=0 / rc_lookahead=50 / rc=2pass / mbtree=1 / bitrate=14000 / ratetol=1.0 / qcomp=0.60 / qpmin=0 / qpmax=69 / qpstep=4 / cplxblur=20.0 / qblur=0.5 / ip_ratio=1.40 / aq=1:1.00
Language : English
Default : Yes
Forced : No
Audio #1
ID : 2
Format : AC-3
Format/Info : Audio Coding 3
Mode extension : CM (complete main)
Format settings, Endianness : Big
Codec ID : A_AC3
Duration : 1h 35mn
Bit rate mode : Constant
Bit rate : 192 Kbps
Channel(s) : 2 channels
Channel positions : Front: L R
Sampling rate : 48.0 KHz
Bit depth : 16 bits
Compression mode : Lossy
Stream size : 131 MiB (1%)
Title : Многоголосый (Позитив)
Language : Russian
Default : Yes
Forced : No
Audio #2
ID : 3
Format : AC-3
Format/Info : Audio Coding 3
Mode extension : CM (complete main)
Format settings, Endianness : Big
Codec ID : A_AC3
Duration : 1h 35mn
Bit rate mode : Constant
Bit rate : 640 Kbps
Channel(s) : 6 channels
Channel positions : Front: L C R, Side: L R, LFE
Sampling rate : 48.0 KHz
Bit depth : 16 bits
Compression mode : Lossy
Stream size : 436 MiB (4%)
Title : Одноголосый (Ю. Живов)
Language : Russian
Default : No
Forced : No
Audio #3
ID : 4
Format : AC-3
Format/Info : Audio Coding 3
Mode extension : CM (complete main)
Format settings, Endianness : Big
Codec ID : A_AC3
Duration : 1h 35mn
Bit rate mode : Constant
Bit rate : 640 Kbps
Channel(s) : 6 channels
Channel positions : Front: L C R, Side: L R, LFE
Sampling rate : 48.0 KHz
Bit depth : 16 bits
Compression mode : Lossy
Stream size : 436 MiB (4%)
Title : Одноголосый (А. Гаврилов)
Language : Russian
Default : No
Forced : No
Audio #4
ID : 5
Format : AC-3
Format/Info : Audio Coding 3
Mode extension : CM (complete main)
Format settings, Endianness : Big
Codec ID : A_AC3
Duration : 1h 35mn
Bit rate mode : Constant
Bit rate : 128 Kbps
Channel(s) : 2 channels
Channel positions : Front: L R
Sampling rate : 48.0 KHz
Bit depth : 16 bits
Compression mode : Lossy
Stream size : 87.2 MiB (1%)
Title : Одноголосый (С. Кузнецов)
Language : Russian
Default : No
Forced : No
Audio #5
ID : 6
Format : AC-3
Format/Info : Audio Coding 3
Mode extension : CM (complete main)
Format settings, Endianness : Big
Codec ID : A_AC3
Duration : 1h 35mn
Bit rate mode : Constant
Bit rate : 640 Kbps
Channel(s) : 6 channels
Channel positions : Front: L C R, Side: L R, LFE
Sampling rate : 48.0 KHz
Bit depth : 16 bits
Compression mode : Lossy
Stream size : 436 MiB (4%)
Language : English
Default : No
Forced : No
Text #1
ID : 7
Format : UTF-8
Codec ID : S_TEXT/UTF8
Codec ID/Info : UTF-8 Plain Text
Language : English
Default : Yes
Forced : No
Text #2
ID : 8
Format : UTF-8
Codec ID : S_TEXT/UTF8
Codec ID/Info : UTF-8 Plain Text
Language : English
Default : No
Forced : No
Menu
00:00:00.000 : en:Chapter 01
00:07:38.291 : en:Chapter 02
00:16:33.826 : en:Chapter 03
00:22:29.389 : en:Chapter 04
00:31:00.149 : en:Chapter 05
00:36:00.575 : en:Chapter 06
00:44:24.203 : en:Chapter 07
00:48:26.320 : en:Chapter 08
00:52:22.222 : en:Chapter 09
00:56:01.900 : en:Chapter 10
01:05:33.262 : en:Chapter 11
01:09:55.649 : en:Chapter 12
01:15:31.401 : en:Chapter 13
01:24:56.591 : en:Chapter 14

Пятница 13-е часть 4: Последняя глава / Friday the 13th, part 4: The Final Chapter 1984:
Год выпуска: 1984
Страна: США
Жанр: Ужасы, триллер
Продолжительность: 01:31:24
Перевод: Профессиональный (многоголосый закадровый) x 2 Позитив - русский, Интер - украинский
Перевод: Авторский (одноголосый) x 6 - Ю. Живов, С. Кузнецов, В. Дохалов, А. Готлиб
Оригинальная аудиодорожка: Английский
Субтитры: Английские--Режиссер: Джозеф Зито /Joseph Zito/
В ролях: Криспин Гловер /Crispin Glover/, Кимберли Бек /Kimberley Beck/, Барбара Хауард /Barbara Howard/, Эрих Андерсон /Erich Anderson/, Кори Фелдмэн /Corey Feldman/, Тед Уайт /Ted White/--Описание: На этот раз Джейсон очнулся в темном тесном холодильнике морга и это ему конечно не понравилось. А кому бы понравилось? А тем временем шестеро подростков снимают летний домик в лесу, неподалеку от печально известного озера, в котором и утонул в детстве чертенок Джейсон. Решили значит ребята погудеть, покричать, побегать от маньяка, вернувшегося с того света. Погудели, покричали. От убийцы в хоккейной маске убежали не все...- -Тип релиза: BDRip 1080p
Контейнер: MKV
Видео кодек: H264
Аудио кодек: AC3
Видео: MPEG4 Video (H264), 1920x1080, 23.976fps, 14.0 Mbps
Аудио #1: Русский - Dolby AC3, 48000 Hz, 2ch, 192 kbps - Многоголосый - Позитив
Аудио #2: Русский - Dolby AC3, 48000 Hz, 6ch, 640 kbps - Одноголосый - Ю. Живов - поздний
Аудио #3: Русский - Dolby AC3, 48000 Hz, 2ch, 192 kbps - Одноголосый - С. Кузнецов
Аудио #4: Русский - Dolby AC3, 48000 Hz, 2ch, 192 kbps - Одноголосый - В. Дохалов
Аудио #5: Русский - Dolby AC3, 48000 Hz, 2ch, 192 kbps - Одноголосый - А. Готлиб
Аудио #6: Русский - Dolby AC3, 48000 Hz, 2ch, 192 kbps - Одноголосый - Ю. Живов - ранний
Аудио #7: Русский - Dolby AC3, 48000 Hz, 2ch, 192 kbps - Одноголосый
Аудио #8: Украинский - Dolby AC3, 48000 Hz, 2ch, 192 kbps - Многоголосый - Интер
Аудио #9: Английский - Dolby AC3, 48000 Hz, 6ch, 640 kbps
Формат субтитров: softsub (SRT)
--Сэмпл-MediaInfo:
General
Unique ID : 178196695634893980820764425467183323277 (0x860F6F6A03D5092E9740DD52E289588D)
Complete name : F:\Torrent 2\1980-1989.Friday.13.part.1-8.likko\Пятница 13 – Часть 4.mkv
Format : Matroska
Format version : Version 4 / Version 2
File size : 10.6 GiB
Duration : 1h 31mn
Overall bit rate : 16.6 Mbps
Encoded date : UTC 2014-11-18 12:52:38
Writing application : mkvmerge v7.1.0 ('Good Love') 32bit built on Jul 27 2014 12:59:18
Writing library : libebml v1.3.0 + libmatroska v1.4.1
DURATION : 01:30:57.577000000
NUMBER_OF_FRAMES : 764
NUMBER_OF_BYTES : 21256
_STATISTICS_WRITING_APP : mkvmerge v7.1.0 ('Good Love') 32bit built on Jul 27 2014 12:59:18
_STATISTICS_WRITING_DATE_UTC : 2014-11-18 12:52:38
_STATISTICS_TAGS : BPS DURATION NUMBER_OF_FRAMES NUMBER_OF_BYTES
Video
ID : 1
Format : AVC
Format/Info : Advanced Video Codec
Format profile : High@L4.1
Format settings, CABAC : Yes
Format settings, ReFrames : 3 frames
Codec ID : V_MPEG4/ISO/AVC
Duration : 1h 31mn
Nominal bit rate : 14.0 Mbps
Width : 1 920 pixels
Height : 1 080 pixels
Display aspect ratio : 16:9
Frame rate mode : Constant
Frame rate : 23.976 fps
Color space : YUV
Chroma subsampling : 4:2:0
Bit depth : 8 bits
Scan type : Progressive
Bits/(Pixel*Frame) : 0.282
Title : Пятница 13 – Часть 4: Последняя глава / renta23
Writing library : x264 core 125 r2208 d9d2288
Encoding settings : cabac=1 / ref=4 / deblock=1:-1:-1 / analyse=0x3:0x133 / me=umh / subme=11 / psy=1 / psy_rd=1.15:0.25 / mixed_ref=1 / me_range=24 / chroma_me=1 / trellis=2 / 8x8dct=1 / cqm=0 / deadzone=21,11 / fast_pskip=0 / chroma_qp_offset=-4 / threads=12 / lookahead_threads=2 / sliced_threads=0 / nr=0 / decimate=1 / interlaced=0 / bluray_compat=0 / constrained_intra=0 / bframes=6 / b_pyramid=1 / b_adapt=2 / b_bias=0 / direct=3 / weightb=1 / open_gop=0 / weightp=2 / keyint=250 / keyint_min=23 / scenecut=40 / intra_refresh=0 / rc_lookahead=50 / rc=2pass / mbtree=1 / bitrate=14000 / ratetol=1.0 / qcomp=0.60 / qpmin=0 / qpmax=69 / qpstep=4 / cplxblur=20.0 / qblur=0.5 / ip_ratio=1.40 / aq=1:1.00
Language : English
Default : Yes
Forced : No
Audio #1
ID : 2
Format : AC-3
Format/Info : Audio Coding 3
Mode extension : CM (complete main)
Format settings, Endianness : Big
Codec ID : A_AC3
Duration : 1h 31mn
Bit rate mode : Constant
Bit rate : 192 Kbps
Channel(s) : 2 channels
Channel positions : Front: L R
Sampling rate : 48.0 KHz
Bit depth : 16 bits
Compression mode : Lossy
Stream size : 126 MiB (1%)
Title : Многоголосый (Позитив)
Language : Russian
Default : Yes
Forced : No
Audio #2
ID : 3
Format : AC-3
Format/Info : Audio Coding 3
Mode extension : CM (complete main)
Format settings, Endianness : Big
Codec ID : A_AC3
Duration : 1h 31mn
Bit rate mode : Constant
Bit rate : 640 Kbps
Channel(s) : 6 channels
Channel positions : Front: L C R, Side: L R, LFE
Sampling rate : 48.0 KHz
Bit depth : 16 bits
Compression mode : Lossy
Stream size : 418 MiB (4%)
Title : Одноголосый (Ю. Живов - поздний)
Language : Russian
Default : No
Forced : No
Audio #3
ID : 4
Format : AC-3
Format/Info : Audio Coding 3
Mode extension : CM (complete main)
Format settings, Endianness : Big
Codec ID : A_AC3
Duration : 1h 31mn
Bit rate mode : Constant
Bit rate : 192 Kbps
Channel(s) : 2 channels
Channel positions : Front: L R
Sampling rate : 48.0 KHz
Bit depth : 16 bits
Compression mode : Lossy
Stream size : 126 MiB (1%)
Title : Одноголосый (С. Кузнецов)
Language : Russian
Default : No
Forced : No
Audio #4
ID : 5
Format : AC-3
Format/Info : Audio Coding 3
Mode extension : CM (complete main)
Format settings, Endianness : Big
Codec ID : A_AC3
Duration : 1h 31mn
Bit rate mode : Constant
Bit rate : 192 Kbps
Channel(s) : 2 channels
Channel positions : Front: L R
Sampling rate : 48.0 KHz
Bit depth : 16 bits
Compression mode : Lossy
Stream size : 126 MiB (1%)
Title : Одноголосый (В. Дохалов) - со вставкой С. Кузнецова
Language : Russian
Default : No
Forced : No
Audio #5
ID : 6
Format : AC-3
Format/Info : Audio Coding 3
Mode extension : CM (complete main)
Format settings, Endianness : Big
Codec ID : A_AC3
Duration : 1h 31mn
Bit rate mode : Constant
Bit rate : 192 Kbps
Channel(s) : 2 channels
Channel positions : Front: L R
Sampling rate : 48.0 KHz
Bit depth : 16 bits
Compression mode : Lossy
Stream size : 126 MiB (1%)
Title : Одноголосый (А. Готлиб)
Language : Russian
Default : No
Forced : No
Audio #6
ID : 7
Format : AC-3
Format/Info : Audio Coding 3
Mode extension : CM (complete main)
Format settings, Endianness : Big
Codec ID : A_AC3
Duration : 1h 31mn
Bit rate mode : Constant
Bit rate : 192 Kbps
Channel(s) : 2 channels
Channel positions : Front: L R
Sampling rate : 48.0 KHz
Bit depth : 16 bits
Compression mode : Lossy
Stream size : 126 MiB (1%)
Title : Одноголосый (Ю. Живов - ранний)
Language : Russian
Default : No
Forced : No
Audio #7
ID : 8
Format : AC-3
Format/Info : Audio Coding 3
Codec ID : A_AC3
Duration : 1h 31mn
Channel(s) : 2 channels
Sampling rate : 48.0 KHz
Compression mode : Lossy
Title : Одноголосый
Language : Russian
Default : No
Forced : No
Audio #8
ID : 9
Format : AC-3
Format/Info : Audio Coding 3
Codec ID : A_AC3
Duration : 1h 31mn
Channel(s) : 2 channels
Sampling rate : 48.0 KHz
Compression mode : Lossy
Title : Многоголосый (Интер)
Language : Ukrainian
Default : No
Forced : No
Audio #9
ID : 10
Format : AC-3
Format/Info : Audio Coding 3
Codec ID : A_AC3
Duration : 1h 31mn
Channel(s) : 6 channels
Sampling rate : 48.0 KHz
Compression mode : Lossy
Language : English
Default : No
Forced : No
Text
ID : 11
Format : UTF-8
Codec ID : S_TEXT/UTF8
Codec ID/Info : UTF-8 Plain Text
Language : English
Default : Yes
Forced : No
Menu
00:00:00.000 : en:Chapter 01
00:04:44.534 : en:Chapter 02
00:08:26.881 : en:Chapter 03
00:16:15.683 : en:Chapter 04
00:20:03.952 : en:Chapter 05
00:29:10.582 : en:Chapter 06
00:35:05.603 : en:Chapter 07
00:41:00.499 : en:Chapter 08
00:49:17.746 : en:Chapter 09
00:53:05.640 : en:Chapter 10
00:59:52.672 : en:Chapter 11
01:08:03.871 : en:Chapter 12
01:16:47.936 : en:Chapter 13
01:26:40.236 : en:Chapter 14

Пятница 13-е часть 5: Новое начало / Friday the 13th, part 5: A New Beginning 1985:
Год выпуска: 1985
Страна: США
Жанр: Ужасы, триллер
Продолжительность: 01:32:17
Перевод: Профессиональный (многоголосый закадровый) x 2 Позитив - русский, Интер - украинский
Перевод: Авторский (одноголосый) Ю. Живов
Оригинальная аудиодорожка: Английский
Субтитры: Английские--Режиссер: Дэнни Стейнманн /Danny Steinmann/
В ролях: Джон Шепард /John Shepard/, Мелани Киннамэн /Melanie Kinnaman/, Шавар Росс /Shavar Ross/, Ричард Янг /Richard Young/, Кэрол Лакателл /Carol Locatell/, Джульетт Камминз /Juliette Cummins/--Описание: Томми Джарвис - новичок в летнем лагере для трудных умалишенных. Потягавшись в 12-ти летнем возрасте с убийцей в маске в игру в догонялки он до сих пор не пришел в себя. Но и здесь ужас, преследующий его сквозь годы прошедшие со времени памятной ночи из четвертой части, нагнал беглеца. В лагере начинают исчезать ребята и Томми не без основания подозревает, что на том свете нет покоя Джейсону Вурхису, и все начинается заново...- -Тип релиза: BDRip 1080p
Контейнер: MKV
Видео кодек: H264
Аудио кодек: AC3
Видео: MPEG4 Video (H264), 1920x1080, 23.976fps, 14.0 Mbps
Аудио #1: Русский - Dolby AC3, 48000 Hz, 2ch, 192 kbps - Многоголосый - Позитив
Аудио #2: Русский - Dolby AC3, 48000 Hz, 6ch, 640 kbps - Одноголосый - Ю. Живов
Аудио #3: Украинский - Dolby AC3, 48000 Hz, 2ch, 192 kbps - Многоголосый - Интер
Аудио #4: Английский - Dolby AC3, 48000 Hz, 6ch, 640 kbps
Формат субтитров: softsub (SRT)
--Сэмпл-MediaInfo:
General
Unique ID : 203638592026820400753469317439597256893 (0x99335DC0B5156585BE6FE6FC053B20BD)
Complete name : F:\Torrent 2\1980-1989.Friday.13.part.1-8.likko\Пятница 13 – Часть 5.mkv
Format : Matroska
Format version : Version 4 / Version 2
File size : 10.1 GiB
Duration : 1h 32mn
Overall bit rate : 15.7 Mbps
Encoded date : UTC 2014-11-18 13:15:28
Writing application : mkvmerge v7.1.0 ('Good Love') 32bit built on Jul 27 2014 12:59:18
Writing library : libebml v1.3.0 + libmatroska v1.4.1
DURATION : 01:31:57.721000000
NUMBER_OF_FRAMES : 789
NUMBER_OF_BYTES : 24318
_STATISTICS_WRITING_APP : mkvmerge v7.1.0 ('Good Love') 32bit built on Jul 27 2014 12:59:18
_STATISTICS_WRITING_DATE_UTC : 2014-11-18 13:15:28
_STATISTICS_TAGS : BPS DURATION NUMBER_OF_FRAMES NUMBER_OF_BYTES
Video
ID : 1
Format : AVC
Format/Info : Advanced Video Codec
Format profile : High@L4.1
Format settings, CABAC : Yes
Format settings, ReFrames : 3 frames
Codec ID : V_MPEG4/ISO/AVC
Duration : 1h 32mn
Bit rate : 14.0 Mbps
Width : 1 920 pixels
Height : 1 080 pixels
Display aspect ratio : 16:9
Frame rate mode : Constant
Frame rate : 23.976 fps
Color space : YUV
Chroma subsampling : 4:2:0
Bit depth : 8 bits
Scan type : Progressive
Bits/(Pixel*Frame) : 0.282
Stream size : 8.83 GiB (87%)
Title : Пятница 13 – Часть 5: Новое начало / Friday the 13th: A New Beginning (1985) / renta23
Writing library : x264 core 125 r2208 d9d2288
Encoding settings : cabac=1 / ref=4 / deblock=1:-1:-1 / analyse=0x3:0x133 / me=umh / subme=11 / psy=1 / psy_rd=1.15:0.25 / mixed_ref=1 / me_range=24 / chroma_me=1 / trellis=2 / 8x8dct=1 / cqm=0 / deadzone=21,11 / fast_pskip=0 / chroma_qp_offset=-4 / threads=12 / lookahead_threads=2 / sliced_threads=0 / nr=0 / decimate=1 / interlaced=0 / bluray_compat=0 / constrained_intra=0 / bframes=6 / b_pyramid=1 / b_adapt=2 / b_bias=0 / direct=3 / weightb=1 / open_gop=0 / weightp=2 / keyint=250 / keyint_min=23 / scenecut=40 / intra_refresh=0 / rc_lookahead=50 / rc=2pass / mbtree=1 / bitrate=14000 / ratetol=1.0 / qcomp=0.60 / qpmin=0 / qpmax=69 / qpstep=4 / cplxblur=20.0 / qblur=0.5 / ip_ratio=1.40 / aq=1:1.00
Language : English
Default : Yes
Forced : No
Audio #1
ID : 2
Format : AC-3
Format/Info : Audio Coding 3
Mode extension : CM (complete main)
Format settings, Endianness : Big
Codec ID : A_AC3
Duration : 1h 32mn
Bit rate mode : Constant
Bit rate : 192 Kbps
Channel(s) : 2 channels
Channel positions : Front: L R
Sampling rate : 48.0 KHz
Bit depth : 16 bits
Compression mode : Lossy
Stream size : 127 MiB (1%)
Title : Многоголосый (Позитив)
Language : Russian
Default : Yes
Forced : No
Audio #2
ID : 3
Format : AC-3
Format/Info : Audio Coding 3
Mode extension : CM (complete main)
Format settings, Endianness : Big
Codec ID : A_AC3
Duration : 1h 32mn
Bit rate mode : Constant
Bit rate : 640 Kbps
Channel(s) : 6 channels
Channel positions : Front: L C R, Side: L R, LFE
Sampling rate : 48.0 KHz
Bit depth : 16 bits
Compression mode : Lossy
Stream size : 422 MiB (4%)
Title : Одноголосый (Ю. Живов)
Language : Russian
Default : No
Forced : No
Audio #3
ID : 4
Format : AC-3
Format/Info : Audio Coding 3
Mode extension : CM (complete main)
Format settings, Endianness : Big
Codec ID : A_AC3
Duration : 1h 32mn
Bit rate mode : Constant
Bit rate : 192 Kbps
Channel(s) : 2 channels
Channel positions : Front: L R
Sampling rate : 48.0 KHz
Bit depth : 16 bits
Compression mode : Lossy
Stream size : 127 MiB (1%)
Title : Многоголосый (Интер)
Language : Ukrainian
Default : No
Forced : No
Audio #4
ID : 5
Format : AC-3
Format/Info : Audio Coding 3
Mode extension : CM (complete main)
Format settings, Endianness : Big
Codec ID : A_AC3
Duration : 1h 32mn
Bit rate mode : Constant
Bit rate : 640 Kbps
Channel(s) : 6 channels
Channel positions : Front: L C R, Side: L R, LFE
Sampling rate : 48.0 KHz
Bit depth : 16 bits
Compression mode : Lossy
Stream size : 422 MiB (4%)
Language : English
Default : No
Forced : No
Text
ID : 6
Format : UTF-8
Codec ID : S_TEXT/UTF8
Codec ID/Info : UTF-8 Plain Text
Language : English
Default : Yes
Forced : No
Menu
00:00:00.000 : en:Chapter 01
00:05:46.512 : en:Chapter 02
00:11:51.711 : en:Chapter 03
00:17:51.028 : en:Chapter 04
00:23:05.967 : en:Chapter 05
00:27:47.957 : en:Chapter 06
00:31:18.334 : en:Chapter 07
00:39:04.675 : en:Chapter 08
00:46:29.286 : en:Chapter 09
00:56:10.116 : en:Chapter 10
01:00:16.487 : en:Chapter 11
01:08:06.540 : en:Chapter 12
01:16:05.435 : en:Chapter 13
01:23:17.826 : en:Chapter 14

Пятница 13-е часть 6: Джейсон жив / Friday the 13th, part 6: Jason Lives 1986:
Год выпуска: 1986
Страна: США
Жанр: Ужасы, триллер
Продолжительность: 01:27:12
Перевод: Профессиональный (многоголосый закадровый) Позитив
Перевод: Авторский (одноголосый) Ю. Живов, С. Кузнецов
Оригинальная аудиодорожка: Английский
Субтитры: Английские--Режиссер: Том МакЛафлин /Tom McLoughlin/
В ролях: Том Мэтьюз /Thom Mathews/, Дженнифер Кук /Jennifer Cook/, Дэвид Кэйгэн /David Kagen/, Рене Джонс /Renee Jones/, Керри Нунэн /Kerry Noonan/, Си Джей Грэхэм /C.J. Graham/--Описание: Пара недоумков раскопали могилу Джейсона, потревожив и разозлив его не на шутку. Жуткий убийца вновь восстал из могилы... На счастье Джейсона летний лагерь Форест Грин вовсе не пустует. Толпы проказников-бойскаутов уже наводнили лагерные корпуса, отовсюду слышатся веселые детские крики. Начать пришлось с вожатых, которые так и норовили встать на пути у Джейсона...- -Тип релиза: BDRip 1080p
Контейнер: MKV
Видео кодек: H264
Аудио кодек: AC3
Видео: MPEG4 Video (H264), 1920x1080, 23.976fps, 14.0 Mbps
Аудио #1: Русский - Dolby AC3, 48000 Hz, 2ch, 192 kbps - Многоголосый - Позитив
Аудио #2: Русский - Dolby AC3, 48000 Hz, 6ch, 640 kbps - Одноголосый - Ю. Живов
Аудио #3: Русский - Dolby AC3, 48000 Hz, 2ch, 192 kbps - Одноголосый - С. Кузнецов
Аудио #4: Русский - Dolby AC3, 48000 Hz, 2ch, 192 kbps - Одноголосый
Аудио #5: Английский - Dolby AC3, 48000 Hz, 6ch, 640 kbps
Формат субтитров: softsub (SRT)
--Сэмпл-MediaInfo:
General
Unique ID : 178774243957262028675529817778383536045 (0x867EAABEB1786943892BD565E068BFAD)
Complete name : F:\Torrent 2\1980-1989.Friday.13.part.1-8.likko\Пятница 13 – Часть 6.mkv
Format : Matroska
Format version : Version 4 / Version 2
File size : 9.66 GiB
Duration : 1h 27mn
Overall bit rate : 15.9 Mbps
Encoded date : UTC 2014-11-18 13:27:19
Writing application : mkvmerge v7.1.0 ('Good Love') 32bit built on Jul 27 2014 12:59:18
Writing library : libebml v1.3.0 + libmatroska v1.4.1
DURATION : 01:26:44.115000000
NUMBER_OF_FRAMES : 842
NUMBER_OF_BYTES : 28918
_STATISTICS_WRITING_APP : mkvmerge v7.1.0 ('Good Love') 32bit built on Jul 27 2014 12:59:18
_STATISTICS_WRITING_DATE_UTC : 2014-11-18 13:27:19
_STATISTICS_TAGS : BPS DURATION NUMBER_OF_FRAMES NUMBER_OF_BYTES
Video
ID : 1
Format : AVC
Format/Info : Advanced Video Codec
Format profile : High@L4.1
Format settings, CABAC : Yes
Format settings, ReFrames : 3 frames
Codec ID : V_MPEG4/ISO/AVC
Duration : 1h 27mn
Bit rate : 14.0 Mbps
Width : 1 920 pixels
Height : 1 080 pixels
Display aspect ratio : 16:9
Frame rate mode : Constant
Frame rate : 23.976 fps
Color space : YUV
Chroma subsampling : 4:2:0
Bit depth : 8 bits
Scan type : Progressive
Bits/(Pixel*Frame) : 0.282
Stream size : 8.34 GiB (86%)
Title : Пятница 13 – Часть 6: Джейсон жив! (1986) / renta23
Writing library : x264 core 125 r2208 d9d2288
Encoding settings : cabac=1 / ref=4 / deblock=1:-1:-1 / analyse=0x3:0x133 / me=umh / subme=11 / psy=1 / psy_rd=1.15:0.25 / mixed_ref=1 / me_range=24 / chroma_me=1 / trellis=2 / 8x8dct=1 / cqm=0 / deadzone=21,11 / fast_pskip=0 / chroma_qp_offset=-4 / threads=12 / lookahead_threads=2 / sliced_threads=0 / nr=0 / decimate=1 / interlaced=0 / bluray_compat=0 / constrained_intra=0 / bframes=6 / b_pyramid=1 / b_adapt=2 / b_bias=0 / direct=3 / weightb=1 / open_gop=0 / weightp=2 / keyint=250 / keyint_min=23 / scenecut=40 / intra_refresh=0 / rc_lookahead=50 / rc=2pass / mbtree=1 / bitrate=14000 / ratetol=1.0 / qcomp=0.60 / qpmin=0 / qpmax=69 / qpstep=4 / cplxblur=20.0 / qblur=0.5 / ip_ratio=1.40 / aq=1:1.00
Language : English
Default : Yes
Forced : No
Audio #1
ID : 2
Format : AC-3
Format/Info : Audio Coding 3
Mode extension : CM (complete main)
Format settings, Endianness : Big
Codec ID : A_AC3
Duration : 1h 27mn
Bit rate mode : Constant
Bit rate : 192 Kbps
Channel(s) : 2 channels
Channel positions : Front: L R
Sampling rate : 48.0 KHz
Bit depth : 16 bits
Compression mode : Lossy
Stream size : 120 MiB (1%)
Title : Многоголосый (Позитив)
Language : Russian
Default : Yes
Forced : No
Audio #2
ID : 3
Format : AC-3
Format/Info : Audio Coding 3
Mode extension : CM (complete main)
Format settings, Endianness : Big
Codec ID : A_AC3
Duration : 1h 27mn
Bit rate mode : Constant
Bit rate : 640 Kbps
Channel(s) : 6 channels
Channel positions : Front: L C R, Side: L R, LFE
Sampling rate : 48.0 KHz
Bit depth : 16 bits
Compression mode : Lossy
Stream size : 399 MiB (4%)
Title : Одноголосый (Ю. Живов)
Language : Russian
Default : No
Forced : No
Audio #3
ID : 4
Format : AC-3
Format/Info : Audio Coding 3
Mode extension : CM (complete main)
Format settings, Endianness : Big
Codec ID : A_AC3
Duration : 1h 27mn
Bit rate mode : Constant
Bit rate : 192 Kbps
Channel(s) : 2 channels
Channel positions : Front: L R
Sampling rate : 48.0 KHz
Bit depth : 16 bits
Compression mode : Lossy
Stream size : 120 MiB (1%)
Title : Одноголосый (С. Кузнецов)
Language : Russian
Default : No
Forced : No
Audio #4
ID : 5
Format : AC-3
Format/Info : Audio Coding 3
Mode extension : CM (complete main)
Format settings, Endianness : Big
Codec ID : A_AC3
Duration : 1h 27mn
Bit rate mode : Constant
Bit rate : 192 Kbps
Channel(s) : 2 channels
Channel positions : Front: L R
Sampling rate : 48.0 KHz
Bit depth : 16 bits
Compression mode : Lossy
Stream size : 120 MiB (1%)
Title : Одноголосый
Language : Russian
Default : No
Forced : No
Audio #5
ID : 6
Format : AC-3
Format/Info : Audio Coding 3
Mode extension : CM (complete main)
Format settings, Endianness : Big
Codec ID : A_AC3
Duration : 1h 27mn
Bit rate mode : Constant
Bit rate : 640 Kbps
Channel(s) : 6 channels
Channel positions : Front: L C R, Side: L R, LFE
Sampling rate : 48.0 KHz
Bit depth : 16 bits
Compression mode : Lossy
Stream size : 399 MiB (4%)
Language : English
Default : No
Forced : No
Text
ID : 7
Format : UTF-8
Codec ID : S_TEXT/UTF8
Codec ID/Info : UTF-8 Plain Text
Language : English
Default : Yes
Forced : No
Menu
00:00:00.000 : en:Chapter 01
00:06:09.619 : en:Chapter 02
00:12:06.308 : en:Chapter 03
00:15:30.179 : en:Chapter 04
00:20:10.959 : en:Chapter 05
00:27:25.852 : en:Chapter 06
00:35:07.522 : en:Chapter 07
00:41:29.278 : en:Chapter 08
00:46:23.781 : en:Chapter 09
00:49:55.283 : en:Chapter 10
00:55:46.760 : en:Chapter 11
00:59:19.973 : en:Chapter 12
01:03:22.799 : en:Chapter 13
01:08:05.122 : en:Chapter 14
01:14:13.615 : en:Chapter 15
01:21:58.788 : en:Chapter 16

Пятница 13-е часть 7: Новая кровь / Friday the 13th, part 7: The New Blood 1988:
Год выпуска: 1988
Страна: США
Жанр: Ужасы, триллер
Продолжительность: 01:28:19
Перевод: Профессиональный (многоголосый закадровый) x 2 Позитив - русский, Интер - украинский
Перевод: Авторский (одноголосый) Ю. Живов, С. Кузнецов, А. Дольский, Л. Володарский
Оригинальная аудиодорожка: Английский
Субтитры: Английские--Режиссер: Джон Карл Бюхлер /John Carl Buechler/
В ролях: Кэйн Ходдер /Kane Hodder/, Лар Парк Линколн /Lar Park Lincoln/, Кевин Блэр /Kevin Blair/, Терри Кайзер /Terry Kiser/, Сьюзэн Блу /Susan Blu/, Сьюзэн Дженнифер Салливэн /Susan Jennifer Sullivan/--Описание: Джейсон Вурхиз - не совсем обычный убийца... На его счету сотни невинных жертв, но отправить на тот свет его самого - практически невозможно. Одному из счастливчиков удалось приковать Джейсона на дне Хрустального озера, где он и скучал в одиночестве... Тина Шеперд - не совсем обычная девушка. Она может предвидеть будущее и передвигать предметы на расстоянии. Ее непредсказуемый дар освободил Джейсона из его подводной тюрьмы, и кошмар начинается снова...- -Тип релиза: BDRip 1080p
Контейнер: MKV
Видео кодек: H264
Аудио кодек: AC3
Видео: MPEG4 Video (H264), 1920x1080, 23.976fps, 14.0 Mbps
Аудио #1: Русский - Dolby AC3, 48000 Hz, 2ch, 192 kbps - Многоголосый - Позитив
Аудио #2: Русский - Dolby AC3, 48000 Hz, 6ch, 640 kbps - Одноголосый - Ю. Живов
Аудио #3: Русский - Dolby AC3, 48000 Hz, 2ch, 192 kbps - Одноголосый - С. Кузнецов
Аудио #4: Русский - Dolby AC3, 48000 Hz, 2ch, 192 kbps - Одноголосый - А. Дольский
Аудио #5: Русский - Dolby AC3, 48000 Hz, 2ch, 192 kbps - Одноголосый - Л. Володарский
Аудио #6: Русский - Dolby AC3, 48000 Hz, 2ch, 192 kbps - Одноголосый
Аудио #7: Украинский - Dolby AC3, 48000 Hz, 2ch, 192 kbps - Многоголосый - Интер
Аудио #8: Английский - Dolby AC3, 48000 Hz, 6ch, 640 kbps
Формат субтитров: softsub (SRT)
--Сэмпл-MediaInfo:
General
Unique ID : 247220128839692735117646078517325288877 (0xB9FCDD6A015F75A5BCA2A44E444355AD)
Complete name : F:\Torrent 2\1980-1989.Friday.13.part.1-8.likko\Пятница 13 – Часть 7.mkv
Format : Matroska
Format version : Version 4 / Version 2
File size : 10.3 GiB
Duration : 1h 28mn
Overall bit rate : 16.7 Mbps
Encoded date : UTC 2014-11-18 13:36:52
Writing application : mkvmerge v7.1.0 ('Good Love') 32bit built on Jul 27 2014 12:59:18
Writing library : libebml v1.3.0 + libmatroska v1.4.1
DURATION : 01:27:35.292000000
NUMBER_OF_FRAMES : 789
NUMBER_OF_BYTES : 24695
_STATISTICS_WRITING_APP : mkvmerge v7.1.0 ('Good Love') 32bit built on Jul 27 2014 12:59:18
_STATISTICS_WRITING_DATE_UTC : 2014-11-18 13:36:52
_STATISTICS_TAGS : BPS DURATION NUMBER_OF_FRAMES NUMBER_OF_BYTES
Video
ID : 1
Format : AVC
Format/Info : Advanced Video Codec
Format profile : High@L4.1
Format settings, CABAC : Yes
Format settings, ReFrames : 3 frames
Codec ID : V_MPEG4/ISO/AVC
Duration : 1h 28mn
Nominal bit rate : 14.0 Mbps
Width : 1 920 pixels
Height : 1 080 pixels
Display aspect ratio : 16:9
Frame rate mode : Constant
Frame rate : 23.976 fps
Color space : YUV
Chroma subsampling : 4:2:0
Bit depth : 8 bits
Scan type : Progressive
Bits/(Pixel*Frame) : 0.282
Title : Пятница 13 – Часть 7: Новая кровь 1988 / renta23
Writing library : x264 core 125 r2208 d9d2288
Encoding settings : cabac=1 / ref=4 / deblock=1:-1:-1 / analyse=0x3:0x133 / me=umh / subme=11 / psy=1 / psy_rd=1.15:0.25 / mixed_ref=1 / me_range=24 / chroma_me=1 / trellis=2 / 8x8dct=1 / cqm=0 / deadzone=21,11 / fast_pskip=0 / chroma_qp_offset=-4 / threads=12 / lookahead_threads=2 / sliced_threads=0 / nr=0 / decimate=1 / interlaced=0 / bluray_compat=0 / constrained_intra=0 / bframes=6 / b_pyramid=1 / b_adapt=2 / b_bias=0 / direct=3 / weightb=1 / open_gop=0 / weightp=2 / keyint=250 / keyint_min=23 / scenecut=40 / intra_refresh=0 / rc_lookahead=50 / rc=2pass / mbtree=1 / bitrate=14000 / ratetol=1.0 / qcomp=0.60 / qpmin=0 / qpmax=69 / qpstep=4 / cplxblur=20.0 / qblur=0.5 / ip_ratio=1.40 / aq=1:1.00
Language : English
Default : Yes
Forced : No
Audio #1
ID : 2
Format : AC-3
Format/Info : Audio Coding 3
Mode extension : CM (complete main)
Format settings, Endianness : Big
Codec ID : A_AC3
Duration : 1h 28mn
Bit rate mode : Constant
Bit rate : 448 Kbps
Channel(s) : 6 channels
Channel positions : Front: L C R, Side: L R, LFE
Sampling rate : 48.0 KHz
Bit depth : 16 bits
Compression mode : Lossy
Stream size : 283 MiB (3%)
Title : Многоголосый (Позитив)
Language : Russian
Default : Yes
Forced : No
Audio #2
ID : 3
Format : AC-3
Format/Info : Audio Coding 3
Mode extension : CM (complete main)
Format settings, Endianness : Big
Codec ID : A_AC3
Duration : 1h 28mn
Bit rate mode : Constant
Bit rate : 640 Kbps
Channel(s) : 6 channels
Channel positions : Front: L C R, Side: L R, LFE
Sampling rate : 48.0 KHz
Bit depth : 16 bits
Compression mode : Lossy
Stream size : 404 MiB (4%)
Title : Одноголосый (Ю. Живов)
Language : Russian
Default : No
Forced : No
Audio #3
ID : 4
Format : AC-3
Format/Info : Audio Coding 3
Mode extension : CM (complete main)
Format settings, Endianness : Big
Codec ID : A_AC3
Duration : 1h 28mn
Bit rate mode : Constant
Bit rate : 192 Kbps
Channel(s) : 2 channels
Channel positions : Front: L R
Sampling rate : 48.0 KHz
Bit depth : 16 bits
Compression mode : Lossy
Stream size : 121 MiB (1%)
Title : Одноголосый (С. Кузнецов)
Language : Russian
Default : No
Forced : No
Audio #4
ID : 5
Format : AC-3
Format/Info : Audio Coding 3
Mode extension : CM (complete main)
Format settings, Endianness : Big
Codec ID : A_AC3
Duration : 1h 28mn
Bit rate mode : Constant
Bit rate : 192 Kbps
Channel(s) : 2 channels
Channel positions : Front: L R
Sampling rate : 48.0 KHz
Bit depth : 16 bits
Compression mode : Lossy
Stream size : 121 MiB (1%)
Title : Одноголосый (А. Дольский)
Language : Russian
Default : No
Forced : No
Audio #5
ID : 6
Format : AC-3
Format/Info : Audio Coding 3
Mode extension : CM (complete main)
Format settings, Endianness : Big
Codec ID : A_AC3
Duration : 1h 28mn
Bit rate mode : Constant
Bit rate : 192 Kbps
Channel(s) : 2 channels
Channel positions : Front: L R
Sampling rate : 48.0 KHz
Bit depth : 16 bits
Compression mode : Lossy
Stream size : 121 MiB (1%)
Title : Одноголосый (Л. Володарский)
Language : Russian
Default : No
Forced : No
Audio #6
ID : 7
Format : AC-3
Format/Info : Audio Coding 3
Mode extension : CM (complete main)
Format settings, Endianness : Big
Codec ID : A_AC3
Duration : 1h 28mn
Bit rate mode : Constant
Bit rate : 192 Kbps
Channel(s) : 2 channels
Channel positions : Front: L R
Sampling rate : 48.0 KHz
Bit depth : 16 bits
Compression mode : Lossy
Stream size : 121 MiB (1%)
Title : Одноголосый
Language : Russian
Default : No
Forced : No
Audio #7
ID : 8
Format : AC-3
Format/Info : Audio Coding 3
Codec ID : A_AC3
Duration : 1h 28mn
Channel(s) : 2 channels
Sampling rate : 48.0 KHz
Compression mode : Lossy
Title : Многоголосый (Интер)
Language : Ukrainian
Default : No
Forced : No
Audio #8
ID : 9
Format : AC-3
Format/Info : Audio Coding 3
Codec ID : A_AC3
Duration : 1h 28mn
Channel(s) : 6 channels
Sampling rate : 48.0 KHz
Compression mode : Lossy
Language : English
Default : No
Forced : No
Text
ID : 10
Format : UTF-8
Codec ID : S_TEXT/UTF8
Codec ID/Info : UTF-8 Plain Text
Language : English
Default : Yes
Forced : No
Menu
00:00:00.000 : en:Chapter 01
00:05:20.737 : en:Chapter 02
00:09:51.090 : en:Chapter 03
00:16:37.663 : en:Chapter 04
00:21:01.343 : en:Chapter 05
00:25:18.892 : en:Chapter 06
00:31:13.621 : en:Chapter 07
00:37:54.480 : en:Chapter 08
00:45:52.916 : en:Chapter 09
00:50:32.404 : en:Chapter 10
00:54:31.351 : en:Chapter 11
01:00:31.669 : en:Chapter 12
01:05:34.597 : en:Chapter 13
01:12:28.469 : en:Chapter 14
01:21:56.786 : en:Chapter 15

Пятница 13-е часть 8: Джейсон захватывает Манхэттен / Friday the 13th, part 8: Jason Takes Manhattan 1989:
Год выпуска: 1989
Страна: США
Жанр: Ужасы, триллер
Продолжительность: 01:40:27
Перевод: Профессиональный (многоголосый закадровый) x 2 - Позитив - русский, Интер - украинский
Перевод: Авторский (одноголосый) x 4 - Ю. Живов, А. Дольский
Оригинальная аудиодорожка: Английский
Субтитры: Английские--Режиссер: Роб Хедден /Rob Hedden/
В ролях: Дженсен Даггетт /Jensen Duggett/, Кэйн Ходдер /Kane Hodder/, Питер Марк Ричмэн /Peter Mark Richman/, Скотт Ривз /Scott Reeves/, Барбара Бингэм /Barbara Bingham/, В. К. Дюпре /V. C. Dupree/--Описание: Веселой компанией, закончив школу, девчонки и мальчишки отправились на корабле на увеселительную прогулку в Нью-Йорк. На их беду незакрепленным якорем расковыряло прикованного к своей подводной могиле Джейсона, и тот превратил их праздник в ужасный кошмар. Убив большую часть народа, он отправился за теми, кому удалось спастись на шлюпке. И вновь начинается беготня да суета, на сей раз по ночным закоулкам Нью-Йорка...-- -Тип релиза: BDRip 1080p
Контейнер: MKV
Видео кодек: H264
Аудио кодек: AC3
Видео: MPEG4 Video (H264), 1920x1080, 23.976fps, 12.5 Mbps
Аудио: Русский - Dolby AC3, 48000Hz, 2ch, 192 kbps - Многоголосый (Позитив)
Аудио: Русский - Dolby AC3, 48000Hz, 6ch, 640 kbps - Одноголосый (Ю. Живов)
Аудио: Русский - Dolby AC3, 48000Hz, 2ch, 192 kbps - Одноголосый (А. Дольский)
Аудио: Русский - Dolby AC3, 48000Hz, 2ch, 192 kbps - Одноголосый
Аудио: Русский - Dolby AC3, 48000Hz, 2ch, 192 kbps - Одноголосый
Аудио: Украинский - Dolby AC3, 48000Hz, 2ch, 192 kbps - Многоголосый (Интер)
Аудио: Английский - Dolby AC3, 48000Hz, 6ch, 640 kbps
Формат субтитров: softsub (SRT)
--Сэмпл-MediaInfo:
General
Unique ID : 195247379355960786239664371228588178499 (0x92E34706BB7D0363AD21F68FCC98FC43)
Complete name : F:\Torrent 2\1980-1989.Friday.13.part.1-8.likko\Пятница 13 – Часть 8.mkv
Format : Matroska
Format version : Version 4 / Version 2
File size : 10.3 GiB
Duration : 1h 40mn
Overall bit rate : 14.7 Mbps
Encoded date : UTC 2014-11-18 13:50:04
Writing application : mkvmerge v7.1.0 ('Good Love') 32bit built on Jul 27 2014 12:59:18
Writing library : libebml v1.3.0 + libmatroska v1.4.1
DURATION : 01:40:21.098000000
NUMBER_OF_FRAMES : 746
NUMBER_OF_BYTES : 22893
_STATISTICS_WRITING_APP : mkvmerge v7.1.0 ('Good Love') 32bit built on Jul 27 2014 12:59:18
_STATISTICS_WRITING_DATE_UTC : 2014-11-18 13:50:04
_STATISTICS_TAGS : BPS DURATION NUMBER_OF_FRAMES NUMBER_OF_BYTES
Video
ID : 1
Format : AVC
Format/Info : Advanced Video Codec
Format profile : High@L4.1
Format settings, CABAC : Yes
Format settings, ReFrames : 3 frames
Codec ID : V_MPEG4/ISO/AVC
Duration : 1h 40mn
Nominal bit rate : 12.5 Mbps
Width : 1 920 pixels
Height : 1 080 pixels
Display aspect ratio : 16:9
Frame rate mode : Constant
Frame rate : 23.976 fps
Color space : YUV
Chroma subsampling : 4:2:0
Bit depth : 8 bits
Scan type : Progressive
Bits/(Pixel*Frame) : 0.251
Title : Пятница 13 – Часть 8: Джейсон штурмует Манхэттен 1989 / renta23
Writing library : x264 core 125 r2208 d9d2288
Encoding settings : cabac=1 / ref=4 / deblock=1:-1:-1 / analyse=0x3:0x133 / me=umh / subme=11 / psy=1 / psy_rd=1.15:0.25 / mixed_ref=1 / me_range=24 / chroma_me=1 / trellis=2 / 8x8dct=1 / cqm=0 / deadzone=21,11 / fast_pskip=0 / chroma_qp_offset=-4 / threads=12 / lookahead_threads=2 / sliced_threads=0 / nr=0 / decimate=1 / interlaced=0 / bluray_compat=0 / constrained_intra=0 / bframes=6 / b_pyramid=1 / b_adapt=2 / b_bias=0 / direct=3 / weightb=1 / open_gop=0 / weightp=2 / keyint=250 / keyint_min=23 / scenecut=40 / intra_refresh=0 / rc_lookahead=50 / rc=2pass / mbtree=1 / bitrate=12500 / ratetol=1.0 / qcomp=0.60 / qpmin=0 / qpmax=69 / qpstep=4 / cplxblur=20.0 / qblur=0.5 / ip_ratio=1.40 / aq=1:1.00
Language : English
Default : Yes
Forced : No
Audio #1
ID : 2
Format : AC-3
Format/Info : Audio Coding 3
Mode extension : CM (complete main)
Format settings, Endianness : Big
Codec ID : A_AC3
Duration : 1h 40mn
Bit rate mode : Constant
Bit rate : 192 Kbps
Channel(s) : 2 channels
Channel positions : Front: L R
Sampling rate : 48.0 KHz
Bit depth : 16 bits
Compression mode : Lossy
Stream size : 138 MiB (1%)
Title : Многоголосый (Позитив)
Language : Russian
Default : Yes
Forced : No
Audio #2
ID : 3
Format : AC-3
Format/Info : Audio Coding 3
Mode extension : CM (complete main)
Format settings, Endianness : Big
Codec ID : A_AC3
Duration : 1h 40mn
Bit rate mode : Constant
Bit rate : 640 Kbps
Channel(s) : 6 channels
Channel positions : Front: L C R, Side: L R, LFE
Sampling rate : 48.0 KHz
Bit depth : 16 bits
Compression mode : Lossy
Stream size : 460 MiB (4%)
Title : Одноголосый (Ю. Живов)
Language : Russian
Default : No
Forced : No
Audio #3
ID : 4
Format : AC-3
Format/Info : Audio Coding 3
Mode extension : CM (complete main)
Format settings, Endianness : Big
Codec ID : A_AC3
Duration : 1h 40mn
Bit rate mode : Constant
Bit rate : 192 Kbps
Channel(s) : 2 channels
Channel positions : Front: L R
Sampling rate : 48.0 KHz
Bit depth : 16 bits
Compression mode : Lossy
Stream size : 138 MiB (1%)
Title : Одноголосый (А. Дольский)
Language : Russian
Default : No
Forced : No
Audio #4
ID : 5
Format : AC-3
Format/Info : Audio Coding 3
Mode extension : CM (complete main)
Format settings, Endianness : Big
Codec ID : A_AC3
Duration : 1h 40mn
Bit rate mode : Constant
Bit rate : 192 Kbps
Channel(s) : 2 channels
Channel positions : Front: L R
Sampling rate : 48.0 KHz
Bit depth : 16 bits
Compression mode : Lossy
Stream size : 138 MiB (1%)
Title : Одноголосый
Language : Russian
Default : No
Forced : No
Audio #5
ID : 6
Format : AC-3
Format/Info : Audio Coding 3
Mode extension : CM (complete main)
Format settings, Endianness : Big
Codec ID : A_AC3
Duration : 1h 40mn
Bit rate mode : Constant
Bit rate : 192 Kbps
Channel(s) : 2 channels
Channel positions : Front: L R
Sampling rate : 48.0 KHz
Bit depth : 16 bits
Compression mode : Lossy
Stream size : 138 MiB (1%)
Title : Одноголосый
Language : Russian
Default : No
Forced : No
Audio #6
ID : 7
Format : AC-3
Format/Info : Audio Coding 3
Mode extension : CM (complete main)
Format settings, Endianness : Big
Codec ID : A_AC3
Duration : 1h 40mn
Bit rate mode : Constant
Bit rate : 192 Kbps
Channel(s) : 2 channels
Channel positions : Front: L R
Sampling rate : 48.0 KHz
Bit depth : 16 bits
Compression mode : Lossy
Stream size : 138 MiB (1%)
Title : Многоголосый (Интер)
Language : Ukrainian
Default : No
Forced : No
Audio #7
ID : 8
Format : AC-3
Format/Info : Audio Coding 3
Codec ID : A_AC3
Duration : 1h 40mn
Channel(s) : 6 channels
Sampling rate : 48.0 KHz
Compression mode : Lossy
Language : English
Default : No
Forced : No
Text
ID : 9
Format : UTF-8
Codec ID : S_TEXT/UTF8
Codec ID/Info : UTF-8 Plain Text
Language : English
Default : Yes
Forced : No
Menu
00:00:00.000 : en:Chapter 01
00:07:03.381 : en:Chapter 02
00:11:43.327 : en:Chapter 03
00:16:05.214 : en:Chapter 04
00:22:24.426 : en:Chapter 05
00:28:48.977 : en:Chapter 06
00:33:52.780 : en:Chapter 07
00:39:08.596 : en:Chapter 08
00:44:52.981 : en:Chapter 09
00:48:42.336 : en:Chapter 10
00:55:11.433 : en:Chapter 11
01:01:17.632 : en:Chapter 12
01:07:18.492 : en:Chapter 13
01:13:36.537 : en:Chapter 14
01:19:50.118 : en:Chapter 15
01:26:44.407 : en:Chapter 16
01:35:20.715 : en:Chapter 17
Скачать

Скачать торрент!

Как скачивать? · Что такое торрент? · Рейтинг и ограничения

Сайт не распространяет и не хранит электронные версии произведений, а лишь предоставляет доступ к создаваемому пользователями каталогу ссылок на торрент-файлы, которые содержат только списки хеш-сумм

[Профиль] [ЛС]
Показать сообщения:    
Ответить на тему

Текущее время: Сегодня 20:30

Часовой пояс: GMT + 4



Вы не можете начинать темы
Вы не можете отвечать на сообщения
Вы не можете редактировать свои сообщения
Вы не можете удалять свои сообщения
Вы не можете голосовать в опросах
Вы не можете прикреплять файлы к сообщениям
Вы не можете скачивать файлы