Призрачный гонщик / Ghost Rider (Марк Стивен Джонсон / Mark Steven Johnson) [2007 г., США, Австралия, Фэнтези, Боевик, WEB-DL 1080p] [Театральная версия / Theatrical version] Dub + Original Eng

Ответить на тему
 
Автор Сообщение

user ®

Стаж: 7 лет 7 месяцев

Сообщений: 20008

Пост Пост: #1 от 21-Ноя-2014 23:10

[Цитировать]

Призрачный гонщик / Ghost Rider [Театральная версия / Theatrical version]
Год выпуска: 2007
Страна: США, Австралия
Жанр: Фэнтези, Боевик
Продолжительность: 1:49:59
Перевод: Профессиональный (полное дублирование)
Оригинальная аудиодорожка: английский
Навигация по главам: есть
Cубтитры: нет
Режиссер: Марк Стивен Джонсон / Mark Steven Johnson
В ролях: Николас Кейдж /Nicolas Cage/, Ева Мендес /Eva Mendes/, Уэс Бентли /Wes Bentley/, Питер Фонда /Peter Fonda/, Сэм Эллиотт /Sam Elliott/, Донал Лог /Donal Logue/
Описание: Чтобы спасти своего отца от верной гибели, байкер-экстремал Джонни Блэйз заключает сделку с дьяволом, объектом которой является его бессмертная душа. Проходят годы, и дьявол предъявляет свои права по контракту. Он превращает Джонни в Призрачного Гонщика, агента потусторонних сил, обладающего сверхчеловеческими способностями.
Исходник видео: iTunes
Качество: WEB-DL 1080p
Формат: MKV
Видео кодек: H.264
Аудио кодек: AC3
Видео: 1920x800, 23.976 fps, 3772 kbps
Аудио №1: DD 5.1, 384 kbps, 48 kHz | Профессиональный (полное дублирование)
Аудио №2: DD 5.1, 384 kbps, 48 kHz | Оригинальная англоязычная озвучка
Скачать: SAMPLE 49.00MB
Дополнительная информация: Приобретено и взломано мной.
Дорога с дубляжем была перетянута с 25.000 до 23.976 т.к. театральная версия из iTunes имеет fps 23.976, а у нас эта версия издавалась (на DVD) c fps 25.000.
MediaInfo
Формат                                   : Matroska
Версия формата                           : Version 4 / Version 2
Размер файла                             : 3,56 Гбайт
Продолжительность                        : 1 ч. 49 м.
Общий поток                              : 4632 Кбит/сек
Дата кодирования                         : UTC 2014-11-19 15:54:13
Программа кодирования                    : mkvmerge v6.1.0 ('Old Devil') built on Mar  2 2013 14:32:37
Библиотека кодирования                   : libebml v1.3.0 + libmatroska v1.4.0
Видео
Идентификатор                            : 1
Формат                                   : AVC
Формат/Информация                        : Advanced Video Codec
Профиль формата                          : High@L4.0
Параметр CABAC формата                   : Да
Параметр ReFrames формата                : 5 кадров
Идентификатор кодека                     : V_MPEG4/ISO/AVC
Продолжительность                        : 1 ч. 49 м.
Битрейт                                  : 3772 Кбит/сек
Ширина                                   : 1920 пикселей
Высота                                   : 800 пикселей
Соотношение сторон                       : 2,40:1
Режим частоты кадров                     : Постоянный
Частота кадров                           : 23,976 кадра/сек
Цветовое пространство                    : YUV
Субдискретизация насыщенности            : 4:2:0
Битовая глубина                          : 8 бит
Тип развёртки                            : Прогрессивная
Бит/(Пиксели*Кадры)                      : 0.102
Размер потока                            : 2,90 Гбайт (81%)
Язык                                     : English
Default                                  : Да
Forced                                   : Нет
Основные цвета                           : BT.709
Характеристики трансфера                 : BT.709
Коэффициенты матрицы                     : BT.709
Аудио #1
Идентификатор                            : 2
Формат                                   : AC-3
Формат/Информация                        : Audio Coding 3
Расширение режима                        : CM (complete main)
Параметр Endianness формата              : Big
Идентификатор кодека                     : A_AC3
Продолжительность                        : 1 ч. 49 м.
Вид битрейта                             : Постоянный
Битрейт                                  : 384 Кбит/сек
Каналы                                   : 6 каналов
Расположение каналов                     : Front: L C R, Side: L R, LFE
Частота                                  : 48,0 КГц
Битовая глубина                          : 16 бит
Метод сжатия                             : С потерями
Размер потока                            : 302 Мбайт (8%)
Заголовок                                : Дубляж
Язык                                     : Russian
Default                                  : Да
Forced                                   : Нет
Аудио #2
Идентификатор                            : 3
Формат                                   : AC-3
Формат/Информация                        : Audio Coding 3
Расширение режима                        : CM (complete main)
Параметр Endianness формата              : Big
Идентификатор кодека                     : A_AC3
Продолжительность                        : 1 ч. 49 м.
Вид битрейта                             : Постоянный
Битрейт                                  : 384 Кбит/сек
Каналы                                   : 6 каналов
Расположение каналов                     : Front: L C R, Side: L R, LFE
Частота                                  : 48,0 КГц
Битовая глубина                          : 16 бит
Метод сжатия                             : С потерями
Размер потока                            : 302 Мбайт (8%)
Заголовок                                : Оригинальная дорожка
Язык                                     : English
Default                                  : Нет
Forced                                   : Нет
Меню
00:00:00.000                             : en:Devil Legend
00:03:07.000                             : en:Love Phase
00:06:59.000                             : en:Deals with the Devil
00:13:09.000                             : en:Mr. Invincible
00:16:15.000                             : en:Angels Only
00:20:01.000                             : en:World Take over
00:24:58.000                             : en:Out of Control
00:28:42.000                             : en:Suicide Jump
00:31:42.848                             : en:Suicide Jump
00:34:39.046                             : en:Sending Rider
00:37:24.046                             : en:Under Contract
00:41:15.046                             : en:Fire Starter
00:46:23.046                             : en:Pain of Innocence
00:49:37.046                             : en:The Rider
00:53:01.046                             : en:Devil's Hunter
00:58:38.046                             : en:Burning Knowledge
01:05:34.046                             : en:Caged Fire
01:10:01.046                             : en:Hot Suspect
01:14:18.046                             : en:Clean Air
01:16:48.046                             : en:Under Fire
01:18:37.046                             : en:Deal Breaker
01:20:48.046                             : en:Can't Go Back
01:22:31.046                             : en:Soul Burning
01:24:41.046                             : en:Let's Ride
01:29:09.046                             : en:Contract Battle
01:32:34.046                             : en:Call to Power
01:34:25.046                             : en:Worlds Collide
01:36:27.046                             : en:Evil Power
01:38:19.046                             : en:Not Afraid
Скриншоты
Скачать

Скачать торрент!

Как скачивать? · Что такое торрент? · Рейтинг и ограничения

Сайт не распространяет и не хранит электронные версии произведений, а лишь предоставляет доступ к создаваемому пользователями каталогу ссылок на торрент-файлы, которые содержат только списки хеш-сумм

[Профиль] [ЛС]
Показать сообщения:    
Ответить на тему

Текущее время: Сегодня 14:48

Часовой пояс: GMT + 4



Вы не можете начинать темы
Вы не можете отвечать на сообщения
Вы не можете редактировать свои сообщения
Вы не можете удалять свои сообщения
Вы не можете голосовать в опросах
Вы не можете прикреплять файлы к сообщениям
Вы не можете скачивать файлы