Женская логика-1 (Эльдор Уразбаев) [2001, детектив, экранизация, DVB]

Ответить на тему
 
Автор Сообщение

user ®

Стаж: 7 лет 7 месяцев

Сообщений: 20008

Пост Пост: #1 от 21-Ноя-2014 23:10

[Цитировать]

Женская логика-1 (2 серии)
Жанр: детектив, экранизация
Год выпуска: 2001
Продолжительность: 00:47:16 + 00:47:14
Режиссёр: Эльдор Уразбаев
В ролях: Алиса Фрейндлих, Станислав Говорухин, Лариса Гузеева, Андрей Леонов, Александр Самойлов, Дарья Мороз, Ирина Скобцева, Георгий Николаенко, Данила Перов, Марина Черепухина, Геннадий Назаров, Армен Медведев, Александр Числов, Варвара Владимирова, Маргарита Пресич, Раиса Рязанова
Описание: По мотивам одноименного романа Виктора Пронина.
Работник издательства Ольга Петровна Туманова - страстная любительница детективов и сыщик по призванию. Она не "опер", не дознаватель, не следователь, но у нее есть свой способ поиска преступников - логика. Женская логика.
Доп. информация: Запись потока *.ts со спутника Ямал 202, 49° в.д., ремукс в *.mpg программой VideoReDo.
Качество видео: DVB
Формат видео: MPEG-PS
Видео: MPEG Video, 720(768)х576 (4:3), 25,000 кадр/сек, 3550 Кбит/сек
Аудио: MPEG Audio, 48,0 КГц, 2 канала, 160 Кбит/сек
Сравнение
[url=http://***/forum/viewtopic.php?t=154711]http://***/forum/viewtopic.php?t=154711[/url]
http://screenshotcomparison.com/comparison/101063/
[url=http://***/forum/viewtopic.php?t=2050637]http://***/forum/viewtopic.php?t=2050637[/url]
http://screenshotcomparison.com/comparison/101064/
[url=http://***/forum/viewtopic.php?t=154711]http://***/forum/viewtopic.php?t=154711[/url]
http://screenshotcomparison.com/comparison/101066/
MediaInfo
Общее
Полное имя : D:\Torrent\Zhenskaja logika\Женская логика 1 (TVC 49).mpg
Формат : MPEG-PS
Размер файла : 1,24 Гбайт
Продолжительность : 47 м.
Общий поток : 3758 Кбит/сек
Видео
Идентификатор : 224 (0xE0)
Формат : MPEG Video
Версия формата : Version 2
Профиль формата : Main@Main
Параметр BVOP формата : Да
Параметр матрицы формата : Выборочная
Параметр GOP формата : M=3, N=24
Format_Settings_PictureStructure : Frame
Продолжительность : 47 м.
Битрейт : 3550 Кбит/сек
Ширина : 720 пикселей
Высота : 576 пикселей
Соотношение сторон : 4:3
Частота кадров : 25,000 кадров/сек
Стандарт вещания : PAL
Цветовое пространство : YUV
Субдискретизация насыщенности : 4:2:0
Битовая глубина : 8 бит
Тип развёртки : Чересстрочная
Порядок развёртки : Верхнее поле первое
Метод сжатия : С потерями
Бит/(Пиксели*Кадры) : 0.342
Временной код первого кадра : 00:00:00:00
Оригинал временного кода : Group of pictures header
Размер потока : 1,16 Гбайт (94%)
Аудио
Идентификатор : 192 (0xC0)
Формат : MPEG Audio
Версия формата : Version 1
Профиль формата : Layer 2
Продолжительность : 47 м.
Вид битрейта : Постоянный
Битрейт : 160 Кбит/сек
Каналы : 2 канала
Частота : 48,0 КГц
Метод сжатия : С потерями
Задержка видео : 5 мс.
Размер потока : 54,1 Мбайт (4%)
Общее
Полное имя : D:\Torrent\Zhenskaja logika\Женская логика 2 (TVC 49).mpg
Формат : MPEG-PS
Размер файла : 1,24 Гбайт
Продолжительность : 47 м.
Общий поток : 3758 Кбит/сек
Видео
Идентификатор : 224 (0xE0)
Формат : MPEG Video
Версия формата : Version 2
Профиль формата : Main@Main
Параметр BVOP формата : Да
Параметр матрицы формата : Выборочная
Параметр GOP формата : M=3, N=24
Format_Settings_PictureStructure : Frame
Продолжительность : 47 м.
Битрейт : 3550 Кбит/сек
Ширина : 720 пикселей
Высота : 576 пикселей
Соотношение сторон : 4:3
Частота кадров : 25,000 кадров/сек
Стандарт вещания : PAL
Цветовое пространство : YUV
Субдискретизация насыщенности : 4:2:0
Битовая глубина : 8 бит
Тип развёртки : Чересстрочная
Порядок развёртки : Верхнее поле первое
Метод сжатия : С потерями
Бит/(Пиксели*Кадры) : 0.342
Временной код первого кадра : 00:00:00:00
Оригинал временного кода : Group of pictures header
Размер потока : 1,16 Гбайт (94%)
Аудио
Идентификатор : 192 (0xC0)
Формат : MPEG Audio
Версия формата : Version 1
Профиль формата : Layer 2
Продолжительность : 47 м.
Вид битрейта : Постоянный
Битрейт : 160 Кбит/сек
Каналы : 2 канала
Частота : 48,0 КГц
Метод сжатия : С потерями
Задержка видео : 21 мс.
Размер потока : 54,1 Мбайт (4%)
Скриншот c названием фильма Скриншоты
Скачать

Скачать торрент!

Как скачивать? · Что такое торрент? · Рейтинг и ограничения

Сайт не распространяет и не хранит электронные версии произведений, а лишь предоставляет доступ к создаваемому пользователями каталогу ссылок на торрент-файлы, которые содержат только списки хеш-сумм

[Профиль] [ЛС]
Показать сообщения:    
Ответить на тему

Текущее время: Сегодня 02:24

Часовой пояс: GMT + 4



Вы не можете начинать темы
Вы не можете отвечать на сообщения
Вы не можете редактировать свои сообщения
Вы не можете удалять свои сообщения
Вы не можете голосовать в опросах
Вы не можете прикреплять файлы к сообщениям
Вы не можете скачивать файлы