Божий карман / God\'s Pocket (Джон Слэттери / John Slattery) [2014, США, драма, BDRip] DVO

Ответить на тему
 
Автор Сообщение

user ®

Стаж: 7 лет 7 месяцев

Сообщений: 20008

Пост Пост: #1 от 21-Ноя-2014 10:10

[Цитировать]

Божий карман / God's Pocket«The only thing they can't forgive is not being from ... God's Pocket»- Год выпуска: 2014
Жанр: драма
Страна: США
Продолжительность: 01:28:41
Перевод: Любительский (двухголосый, закадовый) "HamsterStudio"
Субтитры: нет-Режиссёр: Джон Слэттери / John Slattery-В ролях: Филип Сеймур Хоффман, Ричард Дженкинс, Кристина Хендрикс, Джон Туртурро, Эдди Марсан, Калеб Лэндри Джонс, Джек О’Коннелл, Билл Бюэлл, Ребекка Клинг, Дэвид Аписелла, Бриджет Бэркэн, Майкл Дрэйер, Пруденс Райт Холмс, Эдди МакГи, Молли Прайс, Доменик Ломбардоззи, Гленн Флешлер, Артур Френч, Дэйв Пауэрс, Морган Олд, Джонатан Гордон, Луис Бордой, Джойс Ван Паттен, Мэттью Лоулер, Дэнни Мастроджорджо, Кристофер МакКанн, Софи Такал, Питер Герети, Патрик Мёрни-Описание: Когда сумасшедший пасынок Микки по имени Леон погибает из-за несчастного случая, никто из живущих по соседству не скорбит о нем. Микки пытается похоронить плохие новости вместе с его телом, но все усложняется, когда мать мальчика решает выяснить всю правду о случившемся...- -Сэмпл: http://multi-up.com/1014529-Качество: BDRip [исх. BDRemux / 1080p / кинозал]
Формат: AVI
Видео: 720x304 (2.37:1), 23.976 fps, XviD build 73 ~1860 kbps avg, 0.35 bit/pixel
Аудио: 48 kHz, AC3 Dolby Digital, 3/2 (L,C,R,l,r) + LFE ch, ~448.00 kbps avg
-Media Info
Формат                                   : AVI
Формат/Информация                        : Audio Video Interleave
Размер файла                             : 1,44 Гбайт
Продолжительность                        : 1 ч. 28 м.
Общий поток                              : 2317 Кбит/сек
Программа кодирования                    : VirtualDubMod 1.5.10.3 | www.virtualdub-fr.org || (build 2550/release)
Библиотека кодирования                   : VirtualDubMod build 2550/release
Видео
Идентификатор                            : 0
Формат                                   : MPEG-4 Visual
Профиль формата                          : Advanced Simple@L5
Параметр BVOP формата                    : 1
Параметр QPel формата                    : Нет
Параметр GMC формата                     : Без точки перехода
Параметр матрицы формата                 : Выборочная
Идентификатор кодека                     : XVID
Идентификатор кодека/Подсказка           : XviD
Продолжительность                        : 1 ч. 28 м.
Битрейт                                  : 1860 Кбит/сек
Ширина                                   : 720 пикселей
Высота                                   : 304 пикселя
Соотношение сторон                       : 2,35:1
Частота кадров                           : 23,976 кадра/сек
Цветовое пространство                    : YUV
Субдискретизация насыщенности            : 4:2:0
Битовая глубина                          : 8 бит
Тип развёртки                            : Прогрессивная
Метод сжатия                             : С потерями
Бит/(Пиксели*Кадры)                      : 0.354
Размер потока                            : 1,15 Гбайт (80%)
Библиотека кодирования                   : XviD 73
Аудио
Идентификатор                            : 1
Формат                                   : AC-3
Формат/Информация                        : Audio Coding 3
Расширение режима                        : CM (complete main)
Параметр Endianness формата              : Big
Идентификатор кодека                     : 2000
Продолжительность                        : 1 ч. 28 м.
Вид битрейта                             : Постоянный
Битрейт                                  : 448 Кбит/сек
Каналы                                   : 6 каналов
Расположение каналов                     : Front: L C R, Side: L R, LFE
Частота                                  : 48,0 КГц
Битовая глубина                          : 16 бит
Метод сжатия                             : С потерями
Размер потока                            : 284 Мбайт (19%)
Выравнивание                             : Разделение по промежуткам
Продолжительность промежутка             : 42  мс. (1,00 видеокадр)
Время предзагрузки промежутка            : 500  мс.
Скриншоты
Скачать

Скачать торрент!

Как скачивать? · Что такое торрент? · Рейтинг и ограничения

Сайт не распространяет и не хранит электронные версии произведений, а лишь предоставляет доступ к создаваемому пользователями каталогу ссылок на торрент-файлы, которые содержат только списки хеш-сумм

[Профиль] [ЛС]
Показать сообщения:    
Ответить на тему

Текущее время: Сегодня 16:34

Часовой пояс: GMT + 4



Вы не можете начинать темы
Вы не можете отвечать на сообщения
Вы не можете редактировать свои сообщения
Вы не можете удалять свои сообщения
Вы не можете голосовать в опросах
Вы не можете прикреплять файлы к сообщениям
Вы не можете скачивать файлы