Неугомонный / Ashaant (Кешу Рамсай / Keshu Ramsay) [1993, Индия, Боевик, DVDRip] MVO (Zee Tv)

Ответить на тему
 
Автор Сообщение

user ®

Стаж: 12 лет

Сообщений: 15092

Пост Пост: #1 от 21-Ноя-2014 03:50

[Цитировать]

Неугомонный / Ashaant
Страна: Индия
Жанр: Боевик
Год выпуска: 1993
Продолжительность: 02:25:47
Перевод: Профессиональный (многоголосый закадровый) Zee Tv
Cубтитры: нет
Режиссер: Кешу Рамсай / Keshu Ramsay
В ролях: Акшай Кумар, Вишувардхан, Ашвини Бхаве, Мамта Кулкарни, Джай Калгуткар, Шарат Саксена, Садашив Амрапуркар, Панкадж Дхир, Пунит Иссар
Описание: Фальшивомонетчики забрались на невиданную высоту, заручились поддержкой в самых верхах у властей штата. Их бизнес приносит огромную прибыль. Но в полицейском управлении нашелся человек, который привык жить по совести. Его принцип — вор должен сидеть в тюрьму, даже если это президент штата.
Доп. информация: Видеоряд взят с раздачи [url=http://***/forum/viewtopic.php?t=4081262]soso4eg[/url] (Спасибо!)
Там перевод одноголосый - женский.
Bombino и Moserbaer - это дистрибьюторы фильмов Болливуда.
Запись звука, сведение: минакши (Спасибо!)
Временами идёт лёгкое заикание звука, так вещал телеканал Zee Tv.
Сэмпл: http://multi-up.com/1014496
Качество видео: DVDRip
Формат видео: AVI
Видео: XviD build 50, 640x368 (1.74:1), 23.976 fps, 1239 kbps avg
Аудио: AC3 Dolby Digital, 48 kHz, 2/0 (L,R) ch, 192 kbps
MediaInfo
General
Complete name : I:\Neugomonnyi.1993.DVDRip.avi
Format : AVI
Format/Info : Audio Video Interleave
File size : 1.47 GiB
Duration : 2h 25mn
Overall bit rate : 1 441 Kbps
Writing application : VirtualDubMod 1.5.10.2 (build 2540/release)
Writing library : VirtualDubMod build 2540/release
Video
ID : 0
Format : MPEG-4 Visual
Format profile : AdvancedSimple@L5
Format settings, BVOP : Yes
Format settings, QPel : No
Format settings, GMC : No warppoints
Format settings, Matrix : Default (H.263)
Codec ID : XVID
Codec ID/Hint : XviD
Duration : 2h 25mn
Bit rate : 1 240 Kbps
Width : 640 pixels
Height : 368 pixels
Display aspect ratio : 16/9
Frame rate : 23.976 fps
Resolution : 24 bits
Colorimetry : 4:2:0
Scan type : Progressive
Bits/(Pixel*Frame) : 0.220
Stream size : 1.26 GiB (86%)
Writing library : XviD 1.2.1 (UTC 2008-12-04)
Audio
ID : 1
Format : AC-3
Format/Info : Audio Coding 3
Codec ID : 2000
Duration : 2h 25mn
Bit rate mode : Constant
Bit rate : 192 Kbps
Channel(s) : 2 channels
Channel positions : L R
Sampling rate : 48.0 KHz
Stream size : 200 MiB (13%)
Alignment : Split accross interleaves
Interleave, duration : 42 ms (1.00 video frame)
Interleave, preload duration : 500 ms
Скриншоты
Скачать

Скачать торрент! Неугомонный / Ashaant (Кешу Рамсай / Keshu Ramsay) [1993, Индия, Боевик, DVDRip] MVO (Zee Tv)

Как скачивать? · Что такое торрент? · Рейтинг и ограничения

Сайт не распространяет и не хранит электронные версии произведений, а лишь предоставляет доступ к создаваемому пользователями каталогу ссылок на торрент-файлы, которые содержат только списки хеш-сумм

[Профиль] [ЛС]
Показать сообщения:    
Ответить на тему

Текущее время: Сегодня 16:13

Часовой пояс: GMT + 4



Вы не можете начинать темы
Вы не можете отвечать на сообщения
Вы не можете редактировать свои сообщения
Вы не можете удалять свои сообщения
Вы не можете голосовать в опросах
Вы не можете прикреплять файлы к сообщениям
Вы не можете скачивать файлы