Бабадук / The Babadook (Дженнифер Кент / Jennifer Kent) [2014, Австралия, ужасы, триллер, драма, HDRip] DVO + Original Eng

Ответить на тему
 
Автор Сообщение

user ®

Стаж: 7 лет 7 месяцев

Сообщений: 20008

Пост Пост: #1 от 21-Ноя-2014 03:50

[Цитировать]

Бабадук / The Babadook
Страна: Австралия
Жанр: ужасы, триллер, драма
Год выпуска: 2014
Продолжительность: 01:29:52
Перевод: Любительский (двухголосый закадровый)
Cубтитры: нет
Оригинальная аудиодорожка: английский
Режиссер: Дженнифер Кент / Jennifer Kent
В ролях: Эсси Дэвис, Ной Вайсман, Хейли МакЭлхинни, Дэниэл Хеншэлл, Барбара Уэст, Бенжамин Винспер, Тиффани Линдолл-Найт, , Крэйг Бехенна, Кармел Джонсон
Описание: Овдовевшую женщину с шестилетним сыном начинает преследовать монстр Бабадук — герой из рассказов-ужасов. Поначалу нервное и странное поведение матери и сына кажется объяснимым для окружающих — без мужской поддержки прожить им сложно. Но вскоре открываются истинные причины, ведь по ночам к ним является Бабадук, чтобы напугать до смерти…
Сэмпл: http://multi-up.com/1014514
Качество видео: HDRip (исходник не известен)
Формат видео: AVI
Видео: Xvid 720x304 25.00fps 1 774 Kbps
Аудио: Dolby AC3 48000Hz stereo 192kbps
Аудио 2: Dolby AC3 48000Hz 6ch 192kbps
MediaInfo
Format : AVI
Format/Info : Audio Video Interleave
File size : 1.36 GiB
Duration : 1h 29mn
Overall bit rate : 2 172 Kbps
Writing application : VirtualDubMod 1.5.10.2 (build 2540/release)
Writing library : VirtualDubMod build 2540/release
Video
ID : 0
Format : MPEG-4 Visual
Format profile : Advanced Simple@L5
Format settings, BVOP : Yes
Format settings, QPel : No
Format settings, GMC : No warppoints
Format settings, Matrix : Default (MPEG)
Codec ID : XVID
Codec ID/Hint : XviD
Duration : 1h 29mn
Bit rate : 1 774 Kbps
Width : 720 pixels
Height : 304 pixels
Display aspect ratio : 2.35:1
Frame rate : 25.000 fps
Resolution : 8 bits
Colorimetry : 4:2:0
Scan type : Progressive
Bits/(Pixel*Frame) : 0.324
Stream size : 1.11 GiB (82%)
Writing library : XviD 1.2.1 (UTC 2008-12-04)
Audio #1
ID : 1
Format : AC-3
Format/Info : Audio Coding 3
Codec ID : 2000
Duration : 1h 29mn
Bit rate mode : Constant
Bit rate : 192 Kbps
Channel(s) : 2 channels
Channel positions : L R
Sampling rate : 48.0 KHz
Stream size : 123 MiB (9%)
Alignment : Split accross interleaves
Interleave, duration : 40 ms (1.00 video frame)
Interleave, preload duration : 500 ms
Audio #2
ID : 2
Format : AC-3
Format/Info : Audio Coding 3
Codec ID : 2000
Duration : 1h 29mn
Bit rate mode : Constant
Bit rate : 192 Kbps
Channel(s) : 6 channels
Channel positions : Front: L C R, Surround: L R, LFE
Sampling rate : 48.0 KHz
Stream size : 123 MiB (9%)
Alignment : Split accross interleaves
Interleave, duration : 40 ms (1.00 video frame)
Interleave, preload duration : 500 ms
Скриншот c названием фильма Скриншоты
Скачать

Скачать торрент!

Как скачивать? · Что такое торрент? · Рейтинг и ограничения

Сайт не распространяет и не хранит электронные версии произведений, а лишь предоставляет доступ к создаваемому пользователями каталогу ссылок на торрент-файлы, которые содержат только списки хеш-сумм

[Профиль] [ЛС]
Показать сообщения:    
Ответить на тему

Текущее время: Сегодня 20:37

Часовой пояс: GMT + 4



Вы не можете начинать темы
Вы не можете отвечать на сообщения
Вы не можете редактировать свои сообщения
Вы не можете удалять свои сообщения
Вы не можете голосовать в опросах
Вы не можете прикреплять файлы к сообщениям
Вы не можете скачивать файлы