Дракон: История Брюса Ли / Dragon: The Bruce Lee Story (Роб Коэн / Rob Cohen) [1993, США, Боевик, Драма, HDTV 1080i] Dub

Ответить на тему
 
Автор Сообщение

user ®

Стаж: 7 лет 7 месяцев

Сообщений: 20008

Пост Пост: #1 от 21-Ноя-2014 00:40

[Цитировать]

Дракон: История Брюса Ли / Dragon: The Bruce Lee Story
Страна: США
Студия: Universal
Жанр: Боевик/Драма
Год выпуска: 1993
Продолжительность: 01:53:18
Перевод: Профессиональный (многоголосый закадровый)
Cубтитры: нет
Оригинальная аудиодорожка: нет
Режиссер: Роб Коэн / Rob Cohen
В ролях: Джейсон Скотт Ли /Jason Scott Lee/, Лорен Холли /Lauren Holly/, Майкл Лернед /Michael Learned/, Нэнси Кван, Кэй Тонг Лим /Kay Tong Lim/, Стерлинг Мэйсер /Sterling Macer/, Свен Оле Торсен /Sven Ole Thorsen/, Рик Янг /Ric Young/, Луойонг Ванг, Роберт Вагнер /Robert Wagner
Описание: Перед искусством Брюса Ли преклонялись многие, а его загадочная смерть в 33 года стала шоком для всего мира. Фильм поставлен по книге Линды Ли Кэдуэлл "Брюс Ли: Человек, которого знала только я". Это великолепно поставленная биография Брюса Ли - гения кунфу. В фильме рассказывается о его личной жизни и профессиональной карьере. Отлично поставленные боевые сцены и прекрасная актерская игра сделают картину интересной не только для поклонников этого спортсмена и киноактера.
Сэмпл: http://multi-up.com/1013077
Тип релиза: HDTV 1080i
Контейнер: TS
Видео: AVC, 1920х1080, 16:9, 8672 Кбит/сек, 25 fps
Аудио: (русский) MPEG Audio, 192 Кбит/сек, 48 КГц, 2 канала
MediaInfo
Общее
Идентификатор : 16 (0x10)
Полное имя : Dragon The Bruce Lee Story_HD.ts
Формат : MPEG-TS
Размер файла : 7,38 Гбайт
Продолжительность : 1 ч. 53 м.
Режим общего битрейта : Переменный
Общий поток : 9327 Кбит/сек
Видео
Идентификатор : 3402 (0xD4A)
Идентификатор меню : 1402 (0x57A)
Формат : AVC
Формат/Информация : Advanced Video Codec
Профиль формата : High@L4.0
Параметр CABAC формата : Да
Параметр ReFrames формата : 3 кадра
Параметр GOP формата : M=4, N=32
Идентификатор кодека : 27
Продолжительность : 1 ч. 53 м.
Битрейт : 8672 Кбит/сек
Ширина : 1920 пикселей
Высота : 1080 пикселей
Соотношение сторон : 16:9
Частота кадров : 25,000 кадров/сек
Стандарт вещания : PAL
Цветовое пространство : YUV
Субдискретизация насыщенности : 4:2:0
Битовая глубина : 8 бит
Тип развёртки : Чересстрочная
Порядок развёртки : Верхнее поле первое
Бит/(Пиксели*Кадры) : 0.167
Размер потока : 6,86 Гбайт (93%)
Основные цвета : BT.709
Характеристики трансфера : BT.709
Коэффициенты матрицы : BT.709
Аудио
Идентификатор : 4402 (0x1132)
Идентификатор меню : 1402 (0x57A)
Формат : MPEG Audio
Версия формата : Version 1
Профиль формата : Layer 2
Идентификатор кодека : 4
Продолжительность : 1 ч. 53 м.
Вид битрейта : Постоянный
Битрейт : 192 Кбит/сек
Каналы : 2 канала
Частота : 48,0 КГц
Метод сжатия : С потерями
Задержка видео : 125 мс.
Размер потока : 156 Мбайт (2%)
Язык : std
Язык, дополнительно : Clean effects
Скриншоты
Скачать

Скачать торрент!

Как скачивать? · Что такое торрент? · Рейтинг и ограничения

Сайт не распространяет и не хранит электронные версии произведений, а лишь предоставляет доступ к создаваемому пользователями каталогу ссылок на торрент-файлы, которые содержат только списки хеш-сумм

[Профиль] [ЛС]
Показать сообщения:    
Ответить на тему

Текущее время: Сегодня 20:06

Часовой пояс: GMT + 4



Вы не можете начинать темы
Вы не можете отвечать на сообщения
Вы не можете редактировать свои сообщения
Вы не можете удалять свои сообщения
Вы не можете голосовать в опросах
Вы не можете прикреплять файлы к сообщениям
Вы не можете скачивать файлы