Исчезновение / Spoorloos / The Vanishing (Джордж Слёйзер / George Sluizer) [1988, Голландия, Франция, триллер, детектив, BDRemux 1080p] VO + DVO + original (dut) + sub (rus, eng)

Ответить на тему
 
Автор Сообщение

user ®

Стаж: 7 лет 7 месяцев

Сообщений: 20008

Пост Пост: #1 от 21-Ноя-2014 00:40

[Цитировать]

Исчезновение / Spoorloos
Год выпуска: 1988
Страна: Голландия, Франция
Жанр: триллер, детектив
Продолжительность: 01:46:23
Перевод1: Одноголосый (закадровый)
Перевод2: Профессиональный (двухголосый закадровый)
Субтитры: русские, английские
Оригинальная аудиодорожка: голландский
Режиссер: Джордж Слёйзер / George Sluizer
В ролях: Бернар-Пьер Доннадье /Bernard-Pierre Donnadieu/, Жене Бервутс /GeneBervoets/, Йоханна тер Стееге /Johanna ter Steege/, Гвен Экхаус /Gwen Eckhaus
Описание: После загадочного и необъяснимого исчезновения девушки главного героя во время короткой остановки на бензозаправочной станции, он (Бервутс) превращается в одержимого человека, безуспешно пытающегося ее найти. Через три года после этих событий, похититель (Доннадье) решает дать о себе знать, терроризируя героя посланиями на почтовых открытках. Так как фильм снят в европейских традициях, то акцент в нем сделан, в основном, на нарастающее психологическое напряжение, переданное крайне убедительно.

Качество: BDRemux 1080p
Формат: MKV
Видео кодек: H.264
Аудио кодек: AC3, FLAC
Видео: MPEG-4 AVC Video / 35000 kbps / 1080p / 23.976 fps / 16:9 / High Profile 4.1
Аудио1: Русский, AC3 2.0 192 Kbps 48,0 КГц(VO)
Аудио2: Русский, AC3 2.0 192 Kbps 48,0 КГц(DVO)
Аудио3: Nederlandse FLAC 1.0 ~666 Kbps 48,0 КГц(Original)
Субтитры: Softsub (SRT)
Главы
MediaInfo
Общее
Уникальный идентификатор : 182862757580073817829644492405333232677
(0x899216079CFD43E98F370B29E4C70C25)
Полное имя : C:\Spoorloos.1988.BDRemux.1080p.2xRus.Dut.mkv
Формат : Matroska
Версия формата : Version 4 / Version 2
Размер файла : 26,7 Гбайт
Продолжительность : 1 ч. 46 м.
Режим общего битрейта : Переменный
Общий поток : 35,9 Мбит/сек
Название фильма : Spoorloos
Дата кодирования : UTC 2014-11-17 20:25:27
Программа кодирования : mkvmerge v6.5.0 ('Isn't she lovely') built on Oct 20 2013 12:50:05
Библиотека кодирования : libebml v1.3.0 + libmatroska v1.4.1
Видео
Идентификатор : 1
Формат : AVC
Формат/Информация : Advanced Video Codec
Профиль формата : High@L4.1
Параметр CABAC формата : Да
Параметр ReFrames формата : 4 кадра
Идентификатор кодека : V_MPEG4/ISO/AVC
Продолжительность : 1 ч. 46 м.
Вид битрейта : Переменный
Максимальный битрейт : 37,0 Мбит/сек
Ширина : 1920 пикселей
Высота : 1080 пикселей
Соотношение сторон : 16:9
Режим частоты кадров : Постоянный
Частота кадров : 23,976 кадра/сек
Цветовое пространство : YUV
Субдискретизация насыщенности : 4:2:0
Битовая глубина : 8 бит
Тип развёртки : Прогрессивная
Заголовок : Spoorloos 1988 1080p Blu-ray AVC LPCM 1.0
Default : Нет
Forced : Нет
Аудио #1
Идентификатор : 2
Формат : AC-3
Формат/Информация : Audio Coding 3
Расширение режима : CM (complete main)
Параметр Endianness формата : Big
Идентификатор кодека : A_AC3
Продолжительность : 1 ч. 46 м.
Вид битрейта : Постоянный
Битрейт : 192 Кбит/сек
Каналы : 2 канала
Расположение каналов : Front: L R
Частота : 48,0 КГц
Битовая глубина : 16 бит
Метод сжатия : С потерями
Размер потока : 146 Мбайт (1%)
Заголовок : VO AC3 2.0.192 kbps
Язык : Russian
Default : Нет
Forced : Нет
Аудио #2
Идентификатор : 3
Формат : AC-3
Формат/Информация : Audio Coding 3
Расширение режима : CM (complete main)
Параметр Endianness формата : Big
Идентификатор кодека : A_AC3
Продолжительность : 1 ч. 46 м.
Вид битрейта : Постоянный
Битрейт : 192 Кбит/сек
Каналы : 2 канала
Расположение каналов : Front: L R
Частота : 48,0 КГц
Битовая глубина : 16 бит
Метод сжатия : С потерями
Размер потока : 146 Мбайт (1%)
Заголовок : DVO AC3 2.0 192 kbps
Язык : Russian
Default : Нет
Forced : Нет
Аудио #3
Идентификатор : 4
Формат : FLAC
Формат/Информация : Free Lossless Audio Codec
Идентификатор кодека : A_FLAC
Продолжительность : 1 ч. 46 м.
Вид битрейта : Переменный
Каналы : 1 канал
Частота : 48,0 КГц
Битовая глубина : 24 бит
Заголовок : Original FLAC 1.0 ~666kbps
Библиотека кодирования : libFLAC 1.2.1 (UTC 2007-09-17)
Язык : Dutch
Default : Нет
Forced : Нет
Текст #1
Идентификатор : 5
Формат : UTF-8
Идентификатор кодека : S_TEXT/UTF8
Идентификатор кодека/Информация : UTF-8 Plain Text
Язык : Russian
Default : Нет
Forced : Нет
Текст #2
Идентификатор : 6
Формат : UTF-8
Идентификатор кодека : S_TEXT/UTF8
Идентификатор кодека/Информация : UTF-8 Plain Text
Язык : English
Default : Нет
Forced : Нет
Меню
00:00:00.000 : en:00:00:00.000
00:03:43.682 : en:00:03:43.682
00:08:28.925 : en:00:08:28.925
00:12:43.429 : en:00:12:43.429
00:16:41.167 : en:00:16:41.167
00:19:37.343 : en:00:19:37.343
00:24:31.845 : en:00:24:31.845
00:28:07.978 : en:00:28:07.978
00:34:29.234 : en:00:34:29.234
00:40:13.953 : en:00:40:13.953
00:48:08.094 : en:00:48:08.094
00:51:42.516 : en:00:51:42.516
00:54:47.701 : en:00:54:47.701
01:02:40.548 : en:01:02:40.548
01:05:15.787 : en:01:05:15.787
01:08:47.582 : en:01:08:47.582
01:13:27.903 : en:01:13:27.903
01:18:44.553 : en:01:18:44.553
01:21:47.528 : en:01:21:47.528
01:26:32.604 : en:01:26:32.604
01:32:05.562 : en:01:32:05.562
01:37:25.006 : en:01:37:25.006
01:40:06.667 : en:01:40:06.667
Сэмпл Скриншоты
Скачать

Скачать торрент!

Как скачивать? · Что такое торрент? · Рейтинг и ограничения

Сайт не распространяет и не хранит электронные версии произведений, а лишь предоставляет доступ к создаваемому пользователями каталогу ссылок на торрент-файлы, которые содержат только списки хеш-сумм

[Профиль] [ЛС]
Показать сообщения:    
Ответить на тему

Текущее время: Сегодня 20:33

Часовой пояс: GMT + 4



Вы не можете начинать темы
Вы не можете отвечать на сообщения
Вы не можете редактировать свои сообщения
Вы не можете удалять свои сообщения
Вы не можете голосовать в опросах
Вы не можете прикреплять файлы к сообщениям
Вы не можете скачивать файлы