Рейд 2 / The Raid 2: Berandal (Гарет Эванс / Gareth Evans) [2014, Индонезия, США, Криминал, триллер, боевик, BDRip] Dub + Sub (Rus,Eng)

Ответить на тему
 
Автор Сообщение

user ®

Стаж: 7 лет 7 месяцев

Сообщений: 20008

Пост Пост: #1 от 21-Ноя-2014 00:40

[Цитировать]

Рейд 2 / The Raid 2: Berandal-«Один против всех» -Страна: Индонезия, США
Студии: Pt. Merantau Films, XYZ Films
Жанр: Криминал, триллер, боевик
Год выпуска: 2014
Продолжительность: 02:30:28
Перевод: Профессиональный (дублированный) - | BD RUS |
Cубтитры: русские, английские | Внешние srt* |
Оригинальная аудиодорожка: нет-Режиссер: Гарет Эванс / Gareth Evans-В ролях: Тио Пакусодево, Ока Антара, Дони Аламсях, Джули Эстелль, Яян Рухьян, Рюхэй Мацуда, Алекс Аббад, Арифин Путра, Сесеп Ариф Рахман, Ико Ювайс...-Описание: Из трех полицейских, выбравшихся из кровавого ада первой части, в живых остается только офицер Рама. Уволившись из спецназа, он пробует начать жизнь заново, но вскоре прошлое жестко напоминает о себе - преступники убивают его брата. Чтобы отомстить, он внедряется в мощный криминальный синдикат, где быстро поднимается до самых вершин бандитской иерархии. Врагов здесь еще больше, и каждый неверный шаг может оказаться последним. Здесь нет ни близких, ни друзей, ни любви, ни тоски, ни жалости!-Автор рипа: _Flash- -Качество видео: BDRip | The.Raid.2.2014.BDRemux 1080p |
Формат видео: AVI
Видео: 720x304, 23.976 fps, XviD build 73 ~1200 kbps avg, 0.230 bit/pixel
Аудио: 48 kHz, AC3 Dolby Digital, 2/0 (L,R) ch, ~192.00 kbps
-Дополнительно о фильме:
Производство, студия дубляжа, прокат:
Знаете ли вы, что...
MediaInfo
General
Complete name : The.Raid.2.2014.BDRip.By_Flash.avi
Format : AVI
Format/Info : Audio Video Interleave
File size : 1.46 GiB
Duration : 2h 30mn
Overall bit rate : 1 392 Kbps
Writing application : VirtualDubMod 1.5.10.3 | www.virtualdub-fr.org || (build 2550/release)
Writing library : VirtualDubMod build 2550/release
Video
ID : 0
Format : MPEG-4 Visual
Format profile : Advanced Simple@L5
Format settings, BVOP : 1
Format settings, QPel : No
Format settings, GMC : No warppoints
Format settings, Matrix : Custom
Codec ID : XVID
Codec ID/Hint : XviD
Duration : 2h 30mn
Bit rate : 1 190 Kbps
Width : 720 pixels
Height : 304 pixels
Display aspect ratio : 2.35:1
Frame rate : 23.976 fps
Color space : YUV
Chroma subsampling : 4:2:0
Bit depth : 8 bits
Scan type : Progressive
Compression mode : Lossy
Bits/(Pixel*Frame) : 0.227
Stream size : 1.25 GiB (86%)
Writing library : XviD 73
Audio
ID : 1
Format : AC-3
Format/Info : Audio Coding 3
Mode extension : CM (complete main)
Format settings, Endianness : Big
Codec ID : 2000
Duration : 2h 30mn
Bit rate mode : Constant
Bit rate : 192 Kbps
Channel(s) : 2 channels
Channel positions : Front: L R
Sampling rate : 48.0 KHz
Bit depth : 16 bits
Compression mode : Lossy
Stream size : 207 MiB (14%)
Alignment : Split accross interleaves
Interleave, duration : 42 ms (1.00 video frame)
Interleave, preload duration : 500 ms
Скриншот c названием фильма Скриншоты
Скачать

Скачать торрент!

Как скачивать? · Что такое торрент? · Рейтинг и ограничения

Сайт не распространяет и не хранит электронные версии произведений, а лишь предоставляет доступ к создаваемому пользователями каталогу ссылок на торрент-файлы, которые содержат только списки хеш-сумм

[Профиль] [ЛС]
Показать сообщения:    
Ответить на тему

Текущее время: Сегодня 01:50

Часовой пояс: GMT + 4



Вы не можете начинать темы
Вы не можете отвечать на сообщения
Вы не можете редактировать свои сообщения
Вы не можете удалять свои сообщения
Вы не можете голосовать в опросах
Вы не можете прикреплять файлы к сообщениям
Вы не можете скачивать файлы