Неудержимые 3 / The Expendables 3 (Патрик Хьюз / Patrick Hughes) [2014, США, Франция, боевик, триллер, приключения, BDRip] Dub

Ответить на тему
 
Автор Сообщение

user ®

Стаж: 7 лет 7 месяцев

Сообщений: 20008

Пост Пост: #1 от 21-Ноя-2014 00:40

[Цитировать]

Неудержимые 3 / The Expendables 3-«Сборная Голливуда снова в игре» -Страна: США, Франция
Жанр: боевик, триллер, приключения
Год выпуска: 2014
Продолжительность: 02:06:27
Перевод: Профессиональный (дублированный) - | Пиратский дубляж |
Cубтитры: нет-Режиссер: Патрик Хьюз / Patrick Hughes-В ролях: Сильвестр Сталлоне, Джейсон Стэйтем, Харрисон Форд, Арнольд Шварценеггер, Мэл Гибсон, Уэсли Снайпс, Дольф Лундгрен, Рэнди Кутюр, Терри Крюс, Келси Грэммер...-Описание: Барни, Кристмас и остальные члены команды сходятся лицом к лицу с Конрадом Стоунбэнксом, многие годы назад основавшем вместе с Барни команду «Неудержимых». Впоследствии Стоунбэнкс становится безжалостным торговцем оружием и тем самым превращается в человека, которого Барни было поручено убить. Или по крайней мере он сам так считал. Теперь Стоунбэнкс, один раз уже сумевший обмануть смерть, поставил себе цель покончить с «Неудержимыми» — но у Барни на этот счет свои планы. Барни решает, что в его борьбе «свежий» подход можно противопоставить старым методам, и пополняет ряды людьми, которые моложе, быстрее и технически более подкованные. Так у членов команды «Неудержимых» начинается новая эра. Последняя миссия превращается в столкновение между представителями классической старой школы и экспертами в высоких технологиях.-Автор рипа: _Flash- -Качество видео: BDRip | Expendables_3.2014.BDRemux.1080p |
Формат видео: AVI
Видео: 720x304, 23.976 fps, XviD build 73 ~1463 kbps avg, 0.280 bit/pixel
Аудио: 48 kHz, AC3 Dolby Digital, 2/0 (L,R) ch, ~192 kbps
-Дополнительно о фильме:
Производство, студия дубляжа, прокат:
Знаете ли вы, что...
Отчёт MediaInfo
General
Complete name : Expendables_3.BDRip.By_Flash.avi
Format : AVI
Format/Info : Audio Video Interleave
File size : 1.47 GiB
Duration : 2h 6mn
Overall bit rate : 1 665 Kbps
Writing application : VirtualDubMod 1.5.10.3 | www.virtualdub-fr.org || (build 2550/release)
Writing library : VirtualDubMod build 2550/release
Video
ID : 0
Format : MPEG-4 Visual
Format profile : Advanced Simple@L5
Format settings, BVOP : 1
Format settings, QPel : No
Format settings, GMC : No warppoints
Format settings, Matrix : Custom
Codec ID : XVID
Codec ID/Hint : XviD
Duration : 2h 6mn
Bit rate : 1 463 Kbps
Width : 720 pixels
Height : 304 pixels
Display aspect ratio : 2.35:1
Frame rate : 23.976 fps
Color space : YUV
Chroma subsampling : 4:2:0
Bit depth : 8 bits
Scan type : Progressive
Compression mode : Lossy
Bits/(Pixel*Frame) : 0.279
Stream size : 1.29 GiB (88%)
Writing library : XviD 73
Audio
ID : 1
Format : AC-3
Format/Info : Audio Coding 3
Mode extension : CM (complete main)
Format settings, Endianness : Big
Codec ID : 2000
Duration : 2h 6mn
Bit rate mode : Constant
Bit rate : 192 Kbps
Channel(s) : 2 channels
Channel positions : Front: L R
Sampling rate : 48.0 KHz
Bit depth : 16 bits
Compression mode : Lossy
Stream size : 174 MiB (12%)
Alignment : Split accross interleaves
Interleave, duration : 42 ms (1.00 video frame)
Interleave, preload duration : 500 ms
Скриншот c названием фильма Скриншоты -Приношу Свои Извинения, перекачайте торрент файл. Все проблемы со звуком исправлены.-
Скачать

Скачать торрент!

Как скачивать? · Что такое торрент? · Рейтинг и ограничения

Сайт не распространяет и не хранит электронные версии произведений, а лишь предоставляет доступ к создаваемому пользователями каталогу ссылок на торрент-файлы, которые содержат только списки хеш-сумм

[Профиль] [ЛС]
Показать сообщения:    
Ответить на тему

Текущее время: Сегодня 07:58

Часовой пояс: GMT + 4



Вы не можете начинать темы
Вы не можете отвечать на сообщения
Вы не можете редактировать свои сообщения
Вы не можете удалять свои сообщения
Вы не можете голосовать в опросах
Вы не можете прикреплять файлы к сообщениям
Вы не можете скачивать файлы