Неотделимый / Inseparable (Дэйян Энг / Dayyan Eng) [2011, Китай, триллер, драма, комедия,HDRip] VO (den904)

Ответить на тему
 
Автор Сообщение

user ®

Стаж: 13 лет

Сообщений: 15071

Пост Пост: #1 от 20-Ноя-2014 10:20

[Цитировать]

Неотделимый / Inseparable
Страна: Китай
Жанр: Триллер, драма, комедия
Год выпуска: 2011
Продолжительность: 01:36:45
Перевод: Одноголосый (закадровый) [den904]
Оригинальная аудиодорожка: нет
Cубтитры: нет
Режиссер:Дэйян Энг / Dayyan Eng
В ролях: Дэниэл Ву, Кевин Спейси, Гун Бэйби, Янь Ни, Петер Стормаре, Кеннет Цан, Мо Чжан, Хань Туншэн, Ван Яньхуй, Бай Сюэюнь
Описание: У молодого Ли сплошные проблемы. Его родители погибли в автокатастрофе, жена потеряла ребенка и впала в депрессию, а босс постоянно предъявляет претензии… Герой фильма «Неотделимый» готов наложить на себя руки, но неожиданно в его жизнь врывается загадочный американец, который помогает Ли изменить свою жизнь, научив справляться с трудностями. Любые обстоятельства изменить реально, нужно просто постараться.
Релиз:
Сэмпл
Качество: HDRip
Контейнер: AVI
Видео: 672x288 (2.33:1), 24.000 fps, XviD build 50 ~873 kbps avg, 0.19 bit/pixel
Аудио:48 kHz, AC3 Dolby Digital, 3/2 (L,C,R,l,r) + LFE ch, ~192 kbps

MI
General
Complete name : C:\Users\Вячеслав\Downloads\Inseparable.2011.HDRip._745_Некул.avi
Format : AVI
Format/Info : Audio Video Interleave
File size : 744 MiB
Duration : 1h 36mn
Overall bit rate : 1 075 Kbps
Writing application : VirtualDubMod 1.5.10.3 | www.virtualdub-fr.org || (build 2550/release)
Writing library : VirtualDubMod build 2550/release
Video
ID : 0
Format : MPEG-4 Visual
Format profile : Advanced Simple@L5
Format settings, BVOP : 2
Format settings, QPel : No
Format settings, GMC : No warppoints
Format settings, Matrix : Default (MPEG)
Codec ID : XVID
Codec ID/Hint : XviD
Duration : 1h 36mn
Bit rate : 874 Kbps
Width : 672 pixels
Height : 288 pixels
Display aspect ratio : 2.35:1
Frame rate : 24.000 fps
Color space : YUV
Chroma subsampling : 4:2:0
Bit depth : 8 bits
Scan type : Progressive
Compression mode : Lossy
Bits/(Pixel*Frame) : 0.188
Stream size : 605 MiB (81%)
Writing library : XviD 1.2.1 (UTC 2008-12-04)
Audio
ID : 1
Format : AC-3
Format/Info : Audio Coding 3
Mode extension : CM (complete main)
Format settings, Endianness : Big
Codec ID : 2000
Duration : 1h 36mn
Bit rate mode : Constant
Bit rate : 192 Kbps
Channel(s) : 6 channels
Channel positions : Front: L C R, Side: L R, LFE
Sampling rate : 48.0 KHz
Bit depth : 16 bits
Compression mode : Lossy
Stream size : 133 MiB (18%)
Alignment : Split accross interleaves
Interleave, duration : 42 ms (1.00 video frame)
Interleave, preload duration : 500 ms
Скриншоты
Скачать

Скачать торрент! Неотделимый / Inseparable (Дэйян Энг / Dayyan Eng) [2011, Китай, триллер, драма, комедия,HDRip] VO (den904)

Как скачивать? · Что такое торрент? · Рейтинг и ограничения

Сайт не распространяет и не хранит электронные версии произведений, а лишь предоставляет доступ к создаваемому пользователями каталогу ссылок на торрент-файлы, которые содержат только списки хеш-сумм

[Профиль] [ЛС]
Показать сообщения:    
Ответить на тему

Текущее время: Сегодня 16:23

Часовой пояс: GMT + 4



Вы не можете начинать темы
Вы не можете отвечать на сообщения
Вы не можете редактировать свои сообщения
Вы не можете удалять свои сообщения
Вы не можете голосовать в опросах
Вы не можете прикреплять файлы к сообщениям
Вы не можете скачивать файлы