Тайная сила (Марина Казнина) [2002 г., сказка, TVRip]

Ответить на тему
 
Автор Сообщение

user ®

Стаж: 7 лет 7 месяцев

Сообщений: 20008

Пост Пост: #1 от 20-Ноя-2014 10:20

[Цитировать]

Тайная сила Год выпуска: 2002.
Жанр: сказка.
Продолжительность: 01:22:28.
Режиссер: Марина Казнина.
В ролях:
Нонна Гришаева, Андрей Егоров, Людмила Чурсина, Татьяна Лютаева, Дарья Панкратова, Алексей Булдаков, Константин Котляров, Валерий Прохоров.
Описание:
Хозяйка Медной горы, Полоз и прочие духи уральских гор общаются с современными людьми, которые вмешиваются в сказочную жизнь.
Доп. информация:
Страна: Россия .
Киностудия: Свердловская киностудия, Уралкиновидео-центр.
Авторы сценария: Марина Казнина, Людмила Кукоба.
Оператор: Татьяна Логинова.
Композитор: Александр Пантыкин.
Художник: Валерий Лукинов.
Премьера: 23 октября 2008 года.

Еще постер Релиз
Рип sharky.

Качество: TVRip
Формат: AVI
Видео: 704x528 (1.33:1), 25 fps, DivX Codec 4.x ~1757 kbps avg, 0.19 bit/pixel
Аудио: 48 kHz, MPEG Layer 3, 2 ch, ~128.00 kbps avg
Отчет MediaInfo
Общее
Полное имя : Tajnaja.sila.2002.DivX.TVRip.fenixclub.avi
Format : AVI
Format/Info : Audio Video Interleave
File size : 1.09 GiB
Duration : 1h 22mn
Overall bit rate : 1 896 Kbps
Video
ID : 0
Format : MPEG-4 Visual
Format settings, BVOP : 1
Format settings, QPel : No
Format settings, GMC : No warppoints
Format settings, Matrix : Default (H.263)
Muxing mode : Packed bitstream
Codec ID : DX50
Codec ID/Hint : DivX 5
Duration : 1h 22mn
Bit rate : 1 758 Kbps
Width : 704 pixels
Height : 528 pixels
Display aspect ratio : 4:3
Frame rate : 25.000 fps
Color space : YUV
Chroma subsampling : 4:2:0
Bit depth : 8 bits
Scan type : Progressive
Compression mode : Lossy
Bits/(Pixel*Frame) : 0.189
Stream size : 1.01 GiB (93%)
Title : Video
Writing library : DivX 3013
Audio
ID : 1
Format : MPEG Audio
Format version : Version 1
Format profile : Layer 3
Codec ID : 55
Codec ID/Hint : MP3
Duration : 1h 22mn
Bit rate mode : Constant
Bit rate : 128 Kbps
Channel(s) : 2 channels
Sampling rate : 48.0 KHz
Compression mode : Lossy
Stream size : 75.5 MiB (7%)
Alignment : Split accross interleaves
Interleave, duration : 40 ms (1.00 video frame)
Interleave, preload duration : 500 ms
Title : Audio
Скриншоты
Альтернативный хост
Скачать

Скачать торрент!

Как скачивать? · Что такое торрент? · Рейтинг и ограничения

Сайт не распространяет и не хранит электронные версии произведений, а лишь предоставляет доступ к создаваемому пользователями каталогу ссылок на торрент-файлы, которые содержат только списки хеш-сумм

[Профиль] [ЛС]
Показать сообщения:    
Ответить на тему

Текущее время: Сегодня 20:38

Часовой пояс: GMT + 4



Вы не можете начинать темы
Вы не можете отвечать на сообщения
Вы не можете редактировать свои сообщения
Вы не можете удалять свои сообщения
Вы не можете голосовать в опросах
Вы не можете прикреплять файлы к сообщениям
Вы не можете скачивать файлы