Любовь по рецепту и без / Любовь, секс и химия / Better Living Through Chemistry (Джофф Мур / Geoff Moore, Дэвид Посаментир / David Posamentier) [2014, США, Великобритания, драма, комедия, HDRip] DUB

Ответить на тему
 
Автор Сообщение

user ®

Стаж: 8 лет 2 месяца

Сообщений: 20008

Пост Пост: #1 от 20-Ноя-2014 10:20

[Цитировать]

Любовь по рецепту и без / Любовь, секс и химия / Better Living Through Chemistry

Год выпуска: 2014
Страна: США, Великобритания
Жанр: драма, комедия
Продолжительность: 01:31:43
Перевод: Профессиональный (дублированный) [Лицензия]
Cубтитры: нет
Режиссер: Джофф Мур / Geoff Moore, Дэвид Посаментир / David Posamentier
В ролях: Сэм Рокуэлл, Оливия Уайлд, Мишель Монахэн, Бен Шварц, Кен Ховард, Джейн Фонда, Рэй Лиотта, Норберт Лео Батц, Дженн Харрис, Харрисон Хольцер...
Описание: Даг Варни — скромный фармацевт и подкаблучник. Всю жизнь окружающие пользовались его мягким характером и не принимали всерьёз. Но однажды произошла встреча, которая изменила всё. Её зовут Элизабет, она яркая, сексуальная, а ее девиз: «Жить нужно в кайф!». Она открыла глаза Дагу на то, что вся его жизнь сера и уныла, а ключ к успеху лежит у него перед носом. Стоит лишь протянуть руку. С этого момента Дага не узнать. Теперь он уверен в себе, женщины без ума от него в постели, а в спорте ему нет равных. Но увлекшись своей новой жизнью, он заходит слишком далеко, а, как известно, за все в жизни приходится платить...
Автор: Scarabey
Качество видео: HDRip (исходник BDRip 720p)
Формат видео: AVI
Видео: 688x288 (2.39:1), 23.976 fps, XviD build 73 ~996 kbps avg, 0.21 bit/pixel
Аудио: 48 kHz, MPEG Layer 3, 2 ch, ~128.00 kbps avg

Сэмпл MediaInfo
Общее
Полное имя : D:\Scarabey\[2014] Better Living Through Chemistry 745 DUB\Lubov.po.retseptu.i.bez.2014_r5_HDRip_[Scarabey].avi
Формат : AVI
Формат/Информация : Audio Video Interleave
Размер файла : 744 Мбайт
Продолжительность : 1 ч. 31 м.
Общий поток : 1134 Кбит/сек
Программа кодирования : VirtualDubMod 1.5.10.3 | www.virtualdub-fr.org || (build 2550/release)
Библиотека кодирования : VirtualDubMod build 2550/release
Видео
Идентификатор : 0
Формат : MPEG-4 Visual
Профиль формата : Advanced Simple@L5
Параметр BVOP формата : 1
Параметр QPel формата : Нет
Параметр GMC формата : Без точки перехода
Параметр матрицы формата : Выборочная
Идентификатор кодека : XVID
Идентификатор кодека/Подсказка : XviD
Продолжительность : 1 ч. 31 м.
Битрейт : 997 Кбит/сек
Ширина : 688 пикселей
Высота : 288 пикселей
Соотношение сторон : 2,40:1
Частота кадров : 23,976 кадра/сек
Цветовое пространство : YUV
Субдискретизация насыщенности : 4:2:0
Битовая глубина : 8 бит
Тип развёртки : Прогрессивная
Метод сжатия : С потерями
Бит/(Пиксели*Кадры) : 0.210
Размер потока : 654 Мбайт (88%)
Библиотека кодирования : XviD 73
Аудио
Идентификатор : 1
Формат : MPEG Audio
Версия формата : Version 1
Профиль формата : Layer 3
Идентификатор кодека : 55
Идентификатор кодека/Подсказка : MP3
Продолжительность : 1 ч. 31 м.
Вид битрейта : Постоянный
Битрейт : 128 Кбит/сек
Каналы : 2 канала
Частота : 48,0 КГц
Метод сжатия : С потерями
Размер потока : 84,0 Мбайт (11%)
Выравнивание : Соединение по промежуткам
Продолжительность промежутка : 42 мс. (1,00 видеокадр)
Время предзагрузки промежутка : 504 мс.
Библиотека кодирования : LAME3.99r
Настройки программы : -m s -V 4 -q 2 -lowpass 17 -b 128
Сравнение
Отличия этой раздачи от [url=http://***/forum/viewtopic.php?t=4806022]существующей[/url]
Скриншот с названием фильма Скриншоты
Скачать

Скачать торрент!

Как скачивать? · Что такое торрент? · Рейтинг и ограничения

Сайт не распространяет и не хранит электронные версии произведений, а лишь предоставляет доступ к создаваемому пользователями каталогу ссылок на торрент-файлы, которые содержат только списки хеш-сумм

[Профиль] [ЛС]
Показать сообщения:    
Ответить на тему

Текущее время: Сегодня 02:42

Часовой пояс: GMT + 4



Вы не можете начинать темы
Вы не можете отвечать на сообщения
Вы не можете редактировать свои сообщения
Вы не можете удалять свои сообщения
Вы не можете голосовать в опросах
Вы не можете прикреплять файлы к сообщениям
Вы не можете скачивать файлы