Рука-убийца / Idle Hands (Родмэн Флендер / Rodman Flender) [1999, США, ужасы, комедия, BDRip 720p] Dub + DVO (ВидеоСервис) + Sub (Rus, Eng) + Original Eng

Ответить на тему
 
Автор Сообщение

user ®

Стаж: 7 лет 7 месяцев

Сообщений: 20008

Пост Пост: #1 от 20-Ноя-2014 07:10

[Цитировать]

-Рука-убийца / Idle Hands-Страна: США
Жанр: ужасы, комедия
Год выпуска: 1999
Продолжительность: 01:32:04-Перевод: Профессиональный (дублированный)
Перевод 2: Профессиональный (двухголосый закадровый) ВидеоСервис
Cубтитры: русские, английские
Оригинальная аудиодорожка: английский-Режиссер: Родмэн Флендер / Rodman Flender
В ролях: Девон Сава, Сет Грин, Элден Хенсон, Джессика Альба, Вивика А. Фокс, Кристофер Харт, Джек Ноузуорти, Кэти Райт, Шон Уэйлен, Николас Сэдлер-Описание: Как-то утром самый ленивый подросток в Америке обнаруживает трупы родителей с оторванными головами и замечает, что его рука стала подозрительно самостоятельной! Оказывается, в него вселились древние силы зла…-Сэмпл: https://yadi.sk/i/cgzT5JH1cjS5d-Тип релиза: BDRip 720p
Контейнер: MKV
Видео: AVC / 1280 x 694 / 1.85:1 / 23.976fps / Bit rate 9352 Kbps / High@L4.1
Аудио: русский / AC3 / 5.1 / 48 kHz / 384 kbps || DUB
Аудио 2: русский / AC3 / 2.0 / 48 kHz / 192 kbps || DVO
Аудио 3: английский / DTS / 5.1 / 48 kHz / 1509 kbps
Формат субтитров: softsub (SRT)
Ведеоряд от NTb
Idle.Hands.1999.720p.BluRay.DTS.x264-NTb
General InformationSource : Idle Hands 1999 1080p Blu-ray AVC DTS-HD MA 5.1-BabyGirl21Container : MatroskaLength : 1h 32mnChapters : IncludedCodec : AVCVideo Bitrate : 9 352 KbpsFormat Profile Level : High@L4.1Resolution : 1280 x 694 pixels (1.85:1)Framerate : 23.976 fpsAudio Stream 1 : English DTS 6 channels @ 1 509 KbpsSubtitles : EnglishGreetings : All NTb Crew, Nick007, 9mm and rose.
Encoding Logx264 [info]: frame I:1028 Avg QP:17.13 size:108162x264 [info]: frame P:26516 Avg QP:17.27 size: 69591x264 [info]: frame B:104912 Avg QP:18.18 size: 44150x264 [info]: consecutive B-frames: 1.6% 1.7% 4.7% 17.2% 19.3% 37.4% 8.5% 6.6% 2.0% 1.0%encoded 132456 frames, 3.02 fps, 9540.56 kb/s, duration 12:12:02.80Source vs Encode




MI
General
Unique ID                                : 207942997327560687832854919628421648292 (0x9C705D51B2F43F1DAD21AA6397F4CFA4)
Complete name                            : X:\  -= Фильмы =-\Рука-убийца (1999. Idle Hands).mkv
Format                                   : Matroska
Format version                           : Version 2
File size                                : 7.48 GiB
Duration                                 : 1h 32mn
Overall bit rate                         : 11.6 Mbps
Movie name                               : Release for RuTracker
Encoded date                             : UTC 2014-11-15 20:22:07
Writing application                      : mkvmerge v4.9.1 ('Ich will') сборка от Jul 11 2011 23:53:15
Writing library                          : libebml v1.2.1 + libmatroska v1.1.1
Video
ID                                       : 1
Format                                   : AVC
Format/Info                              : Advanced Video Codec
Format profile                           : High@L4.1
Format settings, CABAC                   : Yes
Format settings, ReFrames                : 9 frames
Codec ID                                 : V_MPEG4/ISO/AVC
Duration                                 : 1h 32mn
Bit rate                                 : 9 312 Kbps
Width                                    : 1 280 pixels
Height                                   : 694 pixels
Display aspect ratio                     : 1.85:1
Frame rate mode                          : Constant
Frame rate                               : 23.976 fps
Color space                              : YUV
Chroma subsampling                       : 4:2:0
Bit depth                                : 8 bits
Scan type                                : Progressive
Bits/(Pixel*Frame)                       : 0.437
Stream size                              : 5.99 GiB (80%)
Title                                    : Idle.Hands.1999.720p.BluRay.DTS.x264-NTb
Writing library                          : x264 core 140 r2377kMod 1ca7bb9
Encoding settings                        : cabac=1 / ref=9 / deblock=1:-3:-3 / analyse=0x3:0x133 / me=umh / subme=10 / psy=1 / fade_compensate=0.00 / psy_rd=1.05:0.00 / mixed_ref=1 / me_range=48 / chroma_me=1 / trellis=2 / 8x8dct=1 / cqm=0 / deadzone=21,11 / fast_pskip=0 / chroma_qp_offset=-2 / threads=6 / lookahead_threads=1 / sliced_threads=0 / nr=0 / decimate=0 / interlaced=0 / bluray_compat=0 / constrained_intra=0 / fgo=0 / bframes=9 / b_pyramid=2 / b_adapt=2 / b_bias=0 / direct=3 / weightb=1 / open_gop=0 / weightp=2 / keyint=250 / keyint_min=23 / scenecut=40 / intra_refresh=0 / rc_lookahead=100 / rc=crf / mbtree=0 / crf=17.5000 / qcomp=0.60 / qpmin=0 / qpmax=69 / qpstep=4 / vbv_maxrate=50000 / vbv_bufsize=62500 / crf_max=0.0 / nal_hrd=none / filler=0 / ip_ratio=1.10 / pb_ratio=1.10 / aq=1:0.85
Language                                 : English
Default                                  : Yes
Forced                                   : No
Audio #1
ID                                       : 2
Format                                   : AC-3
Format/Info                              : Audio Coding 3
Mode extension                           : CM (complete main)
Format settings, Endianness              : Big
Codec ID                                 : A_AC3
Duration                                 : 1h 32mn
Bit rate mode                            : Constant
Bit rate                                 : 384 Kbps
Channel(s)                               : 6 channels
Channel positions                        : Front: L C R, Side: L R, LFE
Sampling rate                            : 48.0 KHz
Bit depth                                : 16 bits
Compression mode                         : Lossy
Stream size                              : 253 MiB (3%)
Title                                    : Дубляж
Language                                 : Russian
Default                                  : Yes
Forced                                   : No
Audio #2
ID                                       : 3
Format                                   : AC-3
Format/Info                              : Audio Coding 3
Mode extension                           : CM (complete main)
Format settings, Endianness              : Big
Codec ID                                 : A_AC3
Duration                                 : 1h 32mn
Bit rate mode                            : Constant
Bit rate                                 : 192 Kbps
Channel(s)                               : 2 channels
Channel positions                        : Front: L R
Sampling rate                            : 48.0 KHz
Bit depth                                : 16 bits
Compression mode                         : Lossy
Stream size                              : 126 MiB (2%)
Title                                    : DVO [ВидеоСервис]
Language                                 : Russian
Default                                  : No
Forced                                   : No
Audio #3
ID                                       : 4
Format                                   : DTS
Format/Info                              : Digital Theater Systems
Mode                                     : 16
Format settings, Endianness              : Big
Codec ID                                 : A_DTS
Duration                                 : 1h 32mn
Bit rate mode                            : Constant
Bit rate                                 : 1 509 Kbps
Channel(s)                               : 6 channels
Channel positions                        : Front: L C R, Side: L R, LFE
Sampling rate                            : 48.0 KHz
Bit depth                                : 24 bits
Compression mode                         : Lossy
Stream size                              : 994 MiB (13%)
Language                                 : English
Default                                  : No
Forced                                   : No
Text #1
ID                                       : 5
Format                                   : UTF-8
Codec ID                                 : S_TEXT/UTF8
Codec ID/Info                            : UTF-8 Plain Text
Language                                 : Russian
Default                                  : No
Forced                                   : No
Text #2
ID                                       : 6
Format                                   : UTF-8
Codec ID                                 : S_TEXT/UTF8
Codec ID/Info                            : UTF-8 Plain Text
Language                                 : English
Default                                  : No
Forced                                   : No
Menu
00:00:00.000                             : :00:00:00.000
00:08:23.128                             : :00:08:23.128
00:10:03.603                             : :00:10:03.603
00:15:27.468                             : :00:15:27.468
00:22:23.217                             : :00:22:23.217
00:27:08.126                             : :00:27:08.126
00:34:44.582                             : :00:34:44.582
00:38:31.893                             : :00:38:31.893
00:41:58.725                             : :00:41:58.725
00:44:42.680                             : :00:44:42.680
00:52:19.428                             : :00:52:19.428
01:02:12.562                             : :01:02:12.562
01:08:39.699                             : :01:08:39.699
01:14:34.679                             : :01:14:34.679
01:19:28.305                             : :01:19:28.305
01:22:25.524                             : :01:22:25.524
Скриншоты


Зеркало Цитата:
  • Русские дороги и субтитры с [url=http://***/forum/viewtopic.php?t=4816751]этой[/url] раздачи. Субтитры исправлены.
Скачать

Скачать торрент!

Как скачивать? · Что такое торрент? · Рейтинг и ограничения

Сайт не распространяет и не хранит электронные версии произведений, а лишь предоставляет доступ к создаваемому пользователями каталогу ссылок на торрент-файлы, которые содержат только списки хеш-сумм

[Профиль] [ЛС]
Показать сообщения:    
Ответить на тему

Текущее время: Сегодня 15:35

Часовой пояс: GMT + 4



Вы не можете начинать темы
Вы не можете отвечать на сообщения
Вы не можете редактировать свои сообщения
Вы не можете удалять свои сообщения
Вы не можете голосовать в опросах
Вы не можете прикреплять файлы к сообщениям
Вы не можете скачивать файлы