Поют жаворонки (Владимир Корш-Саблин, Константин Санников) [1953, Комедия, DVDScreener]

Ответить на тему
 
Автор Сообщение

user ®

Стаж: 7 лет 7 месяцев

Сообщений: 20008

Пост Пост: #1 от 19-Ноя-2014 22:55

[Цитировать]

Поют жаворонки
Жанр: Комедия
Год выпуска: 1953
Продолжительность: 01:17:06
Режиссёр: Владимир Корш-Саблин, Константин Санников

В ролях: Лилия Дроздова, Иван Шатило, Лидия Ржецкая, Вера Полло, Владимир Дедюшко, Глеб Глебов, Павел Молчанов, Борис Платонов
Описание: Фильм-спектакль по одноименной пьесе Кондрата Крапивы.
Микола Верас, знатный бригадир колхоза "Новая нива", и Настя, агротехник колхоза "Светлый путь", собираются пожениться. Они пытаются понять, какой из двух колхозов лучший, чтобы там им жить и работать вместе. В "Новой ниве" выше заработки, и хлеба на трудодень дают больше, но отстает социальная сфера - нет электричества, радио, клуба. Но председатель колхоза Пытлеванный считает всё это несущественными мелочами. Ошибки председателя вскрывает обком партии, ему указывают на недопустимость такого состояния. Осенью, вырастив богатый урожай и получив свет в свои дома, колхозники весело празднуют свадьбу Миколы и Насти.

Доп. информация: Релиз: , pmv
Сэмпл: http://multi-up.com/1014277
Качество видео: DVDScreener
Формат видео: AVI
Видео: 720x544 (1.32:1), 25 fps, XviD build 73 ~1893 kbps avg, 0.19 bit/pixel
Аудио: 48 kHz, MPEG Layer 3, 2 ch, ~128.00 kbps avg
MediaInfo
Format : AVI
Format/Info : Audio Video Interleave
File size : 1.09 GiB
Duration : 1h 17mn
Overall bit rate : 2 032 Kbps
Writing library : VirtualDub build 35560/release
Video
ID : 0
Format : MPEG-4 Visual
Format profile : Advanced Simple@L5
Format settings, BVOP : 2
Format settings, QPel : No
Format settings, GMC : No warppoints
Format settings, Matrix : Default (H.263)
Codec ID : XVID
Codec ID/Hint : XviD
Duration : 1h 17mn
Bit rate : 1 894 Kbps
Width : 720 pixels
Height : 544 pixels
Display aspect ratio : 4:3
Frame rate : 25.000 fps
Color space : YUV
Chroma subsampling : 4:2:0
Bit depth : 8 bits
Scan type : Progressive
Compression mode : Lossy
Bits/(Pixel*Frame) : 0.193
Stream size : 1.02 GiB (93%)
Writing library : XviD 73
Audio
ID : 1
Format : MPEG Audio
Format version : Version 1
Format profile : Layer 3
Mode : Joint stereo
Codec ID : 55
Codec ID/Hint : MP3
Duration : 1h 17mn
Bit rate mode : Constant
Bit rate : 128 Kbps
Channel(s) : 2 channels
Sampling rate : 48.0 KHz
Compression mode : Lossy
Stream size : 70.6 MiB (6%)
Alignment : Split accross interleaves
Interleave, duration : 40 ms (1.00 video frame)
Interleave, preload duration : 500 ms
Скриншот c названием фильма Скриншоты
Скачать

Скачать торрент!

Как скачивать? · Что такое торрент? · Рейтинг и ограничения

Сайт не распространяет и не хранит электронные версии произведений, а лишь предоставляет доступ к создаваемому пользователями каталогу ссылок на торрент-файлы, которые содержат только списки хеш-сумм

[Профиль] [ЛС]
Показать сообщения:    
Ответить на тему

Текущее время: Сегодня 12:09

Часовой пояс: GMT + 4



Вы не можете начинать темы
Вы не можете отвечать на сообщения
Вы не можете редактировать свои сообщения
Вы не можете удалять свои сообщения
Вы не можете голосовать в опросах
Вы не можете прикреплять файлы к сообщениям
Вы не можете скачивать файлы