Убийство по алфавиту / Алфавитный убийца / The Alphabet Killer (Роб Шмидт / Rob Schmidt) [2008, США, триллер, драма, криминал, HDTV 1080i] DVO

Ответить на тему
 
Автор Сообщение

user ®

Стаж: 7 лет 7 месяцев

Сообщений: 20008

Пост Пост: #1 от 19-Ноя-2014 00:00

[Цитировать]

Убийство по алфавиту / Алфавитный убийца / The Alphabet Killer«Based on a true story» Страна: США
Жанр: триллер, драма, криминал
Год выпуска: 2008
Продолжительность: 01:34:05
Перевод: Профессиональный (двухголосый закадровый)
Cубтитры: нет
Режиссер: Роб Шмидт / Rob Schmidt
В ролях: Элиза Душку, Кэри Элвис, Тимоти Хаттон, Том Маллой, Майкл Айронсайд, Билл Моусли, Карл Ламбли, Брайан Сканнелл, Ларри Хэнкин, Джек МакГи
Описание: Фильм о серийном убийце, по мотивам реальных событий в небольших городках штата Нью-Йорк. Неизвестный жестоко расправляется с тремя 11-летними девочками. Он выбирает своих жертв по первым буквам имен – их фамилии и имена начинаются на одинаковые буквы и совпадают в адресами, где живут девочки. Остается найти убийцу.
Сэмпл: http://rusfolder.com/42273380

Тип релиза: HDTV 1080i
Контейнер: TS
Видео: AVC/H.264, PAL, 1920х1080 (16:9), 25 fps, 8260 Kbps
Аудио: русский, MP-2, 48000 Hz, 192 Кбит/сек, 2 ch
MediaInfo
Общее
Идентификатор : 1 (0x1)
Полное имя : D:\Убийство по алфавиту.ts
Формат : MPEG-TS
Размер файла : 5,84 Гбайт
Продолжительность : 1 ч. 34 м.
Режим общего битрейта : Переменный
Общий поток : 8894 Кбит/сек
Видео
Идентификатор : 4113 (0x1011)
Идентификатор меню : 1 (0x1)
Формат : AVC
Формат/Информация : Advanced Video Codec
Профиль формата : Main@L4.0
Параметр CABAC формата : Да
Параметр ReFrames формата : 3 кадра
Идентификатор кодека : 27
Продолжительность : 1 ч. 34 м.
Вид битрейта : Переменный
Битрейт : 8260 Кбит/сек
Максимальный битрейт : 40,0 Мбит/сек
Ширина : 1920 пикселей
Высота : 1080 пикселей
Соотношение сторон : 16:9
Частота кадров : 25,000 кадров/сек
Стандарт вещания : Component
Цветовое пространство : YUV
Субдискретизация насыщенности : 4:2:0
Битовая глубина : 8 бит
Тип развёртки : Чересстрочная
Порядок развёртки : Верхнее поле первое
Бит/(Пиксели*Кадры) : 0.159
Размер потока : 5,43 Гбайт (93%)
Аудио
Идентификатор : 4352 (0x1100)
Идентификатор меню : 1 (0x1)
Формат : MPEG Audio
Версия формата : Version 1
Профиль формата : Layer 2
Идентификатор кодека : 3
Продолжительность : 1 ч. 34 м.
Вид битрейта : Постоянный
Битрейт : 192 Кбит/сек
Каналы : 2 канала
Частота : 48,0 КГц
Метод сжатия : С потерями
Размер потока : 129 Мбайт (2%)
Язык : Russian
Скриншот c названием фильма Скриншоты
Скачать

Скачать торрент!

Как скачивать? · Что такое торрент? · Рейтинг и ограничения

Сайт не распространяет и не хранит электронные версии произведений, а лишь предоставляет доступ к создаваемому пользователями каталогу ссылок на торрент-файлы, которые содержат только списки хеш-сумм

[Профиль] [ЛС]
Показать сообщения:    
Ответить на тему

Текущее время: Сегодня 15:55

Часовой пояс: GMT + 4



Вы не можете начинать темы
Вы не можете отвечать на сообщения
Вы не можете редактировать свои сообщения
Вы не можете удалять свои сообщения
Вы не можете голосовать в опросах
Вы не можете прикреплять файлы к сообщениям
Вы не можете скачивать файлы