Голодные игры: И вспыхнет пламя / The Hunger Games: Catching Fire (Френсис Лоуренс / Francis Lawrence) [2013, США, Фантастика, боевик, триллер, приключения, BDRip 1080p] Dub + AVO (Сербин) + VO (Матвеев) + Sub Rus, Eng + Original Eng

Ответить на тему
 
Автор Сообщение

user ®

Стаж: 7 лет 7 месяцев

Сообщений: 20008

Пост Пост: #1 от 19-Ноя-2014 00:00

[Цитировать]

Голодные игры: И вспыхнет пламя / The Hunger Games: Catching Fire Страна: США
Студия: Gentle Giant Studios Inc., Double Negative, Fuel VFX, Method Studios, Rodeo FX, Weta Digital
Жанр: Фантастика, боевик, триллер, приключения
Год выпуска: 2013
Продолжительность: 02:26:14
Перевод 1: Профессиональный (дублированный) Blu-Ray
Перевод 2: Авторский (одноголосый закадровый) Сербин
Перевод 3: Одноголосый (закадровый) Doctor_Joker
Cубтитры: русские (forced, full BD, Notabenoid), английские (Full, SDH, SDH Colored)
Оригинальная аудиодорожка: английский
Режиссер: Френсис Лоуренс / Francis Lawrence
В ролях: Дженнифер Лоуренс, Джош Хатчерсон, Сэм Клафлин, Джена Мэлоун, Вуди Харрельсон, Дональд Сазерленд, Элизабет Бэнкс, Лиам Хемсворт, Филип Сеймур Хоффман, Стэнли Туччи
Описание: Сумев выжить на безжалостных Голодных играх, Китнисс Эвердин и Пит Мелларк возвращаются домой. Но теперь они в еще большей опасности, так как своим отказом играть по правилам на Арене бросили вызов Капитолию. По традиции следующие, юбилейные, Голодные игры должны стать особенными, и в этот раз в них участвуют только победители прошлых лет. Китнисс и Пит вынуждены вновь выйти на Арену, где будут соперничать с сильнейшими. Правила игры меняются. Арена еще опасней, масштаб еще больше, ставки еще выше!

Тип релиза: BDRip 1080p[DON]
Контейнер: MKV
Исходник:The Hunger Games Catching Fire 2013 1080p FRE Blu-ray AVC DTS-HD MA 7.1-WiHD
Видео: AVC, 1920x1080, 16500 kbps, 23.976 fps
Аудио 1: Russian: 48 kHz, DTS, 3/2 (L,C,R,l,r) + LFE ch, ~1536.00 kbps avg |Blu-ray|
Аудио 2: Russian: 48 kHz, DTS, 3/2 (L,C,R,l,r) + LFE ch, ~1536.00 kbps avg |Сербин|
Аудио 3: Russian: 48 kHz, DTS, 3/2 (L,C,R,l,r) + LFE ch, ~1536.00 kbps avg |Doctor_Joker|
Аудио 4: English: 48 kHz, DTS, 3/2 (L,C,R,l,r) + LFE ch, ~1536.00 kbps avg |Original|
Чаптеры:есть

Доп.информация
За перевод Ю. Сербина спасибо: пользователям e180 - denis_mgn_1987, zeleniy, kRIPtograf, Slimka, dir, luka69, carnivale, ZombX, Bilko, DB73, Drodder, phaeton77, foxlight, Marillion78, anvic, Skoped, пуля, v1111o, tide, dvd100, Skazhutin, Tio; hdtracker - ultrajeka, _MyxAmoP_, Role, KpucTo161, -Джосс-, timur, eyrobot.
За перевод Doctor_Joker спасибо: пользователям MartinaG, будулайроманов, Вуди Харрельсон
MediaInfo
General
Unique ID : 247664443581098108099913050817495934840 (0xBA526FD278997EFE94D791C417E5A778)
Complete name : D:\The.Hunger.Games.Catching.Fire.2013.1080p.BluRay.DTS.x264-Talian-.mkv
Format : Matroska
Format version : Version 2
File size : 23.4 GiB
Duration : 2h 26mn
Overall bit rate : 22.9 Mbps
Movie name : The Hunger Games: Catching Fire-Talian-
Encoded date : UTC 2014-11-17 08:54:44
Writing application : mkvmerge v5.7.0 ('The Whirlwind') built on Jul 8 2012 20:08:51
Writing library : libebml v1.2.3 + libmatroska v1.3.0
Attachment : Yes
Video
ID : 1
Format : AVC
Format/Info : Advanced Video Codec
Format profile : High@L4.1
Format settings, CABAC : Yes
Format settings, ReFrames : 4 frames
Codec ID : V_MPEG4/ISO/AVC
Duration : 2h 26mn
Bit rate : 16.4 Mbps
Width : 1 920 pixels
Height : 1 080 pixels
Display aspect ratio : 16:9
Frame rate : 23.976 fps
Color space : YUV
Chroma subsampling : 4:2:0
Bit depth : 8 bits
Scan type : Progressive
Bits/(Pixel*Frame) : 0.330
Stream size : 16.7 GiB (72%)
Title : DON
Writing library : x264 core 140 r2377+40 929f149 tMod [8-bit@4:2:0 X86]
Encoding settings : cabac=1 / ref=4 / deblock=1:-3:-3 / analyse=0x3:0x113 / me=tesa / subme=10 / psy=1 / fade_compensate=0.00 / psy_rd=1.05:0.00 / mixed_ref=1 / me_range=24 / chroma_me=1 / trellis=2 / 8x8dct=1 / cqm=0 / deadzone=21,11 / fast_pskip=0 / chroma_qp_offset=-2 / threads=12 / lookahead_threads=3 / sliced_threads=0 / nr=0 / decimate=0 / interlaced=0 / bluray_compat=0 / constrained_intra=0 / fgo=0 / bframes=10 / b_pyramid=2 / b_adapt=2 / b_bias=0 / direct=3 / weightb=1 / open_gop=0 / weightp=2 / keyint=250 / keyint_min=23 / scenecut=40 / intra_refresh=0 / rc=crf / mbtree=0 / crf=17.0000 / qcomp=0.75 / qpmin=0:0:0 / qpmax=69:69:69 / qpstep=4 / ip_ratio=1.30 / pb_ratio=1.10 / aq=4:0.90 / aq-sensitivity=10.00 / aq-factor=1.00:1.00:1.00 / aq2=0 / aq3=0
Language : English
Default : Yes
Forced : No
Audio #1
ID : 2
Format : DTS
Format/Info : Digital Theater Systems
Codec ID : A_DTS
Duration : 2h 26mn
Bit rate mode : Constant
Bit rate : 1 510 Kbps
Channel(s) : 6 channels
Channel positions : Front: L C R, Side: L R, LFE
Sampling rate : 48.0 KHz
Bit depth : 16 bits
Compression mode : Lossy
Stream size : 1.54 GiB (7%)
Title : Dub- Blu-ray
Language : Russian
Default : Yes
Forced : No
Audio #2
ID : 3
Format : DTS
Format/Info : Digital Theater Systems
Codec ID : A_DTS
Duration : 2h 26mn
Bit rate mode : Constant
Bit rate : 1 510 Kbps
Channel(s) : 6 channels
Channel positions : Front: L C R, Side: L R, LFE
Sampling rate : 48.0 KHz
Bit depth : 24 bits
Compression mode : Lossy
Stream size : 1.54 GiB (7%)
Title : AVO - Сербин
Language : Russian
Default : No
Forced : No
Audio #3
ID : 4
Format : DTS
Format/Info : Digital Theater Systems
Codec ID : A_DTS
Duration : 2h 26mn
Bit rate mode : Constant
Bit rate : 1 510 Kbps
Channel(s) : 6 channels
Channel positions : Front: L C R, Side: L R, LFE
Sampling rate : 48.0 KHz
Bit depth : 24 bits
Compression mode : Lossy
Stream size : 1.54 GiB (7%)
Title : VO-Doctor_Joker
Language : Russian
Default : No
Forced : No
Audio #4
ID : 5
Format : DTS
Format/Info : Digital Theater Systems
Codec ID : A_DTS
Duration : 2h 26mn
Bit rate mode : Constant
Bit rate : 1 510 Kbps
Channel(s) : 6 channels
Channel positions : Front: L C R, Side: L R, LFE
Sampling rate : 48.0 KHz
Bit depth : 24 bits
Compression mode : Lossy
Stream size : 1.54 GiB (7%)
Title : Original
Language : English
Default : No
Forced : No
Text #1
ID : 6
Format : UTF-8
Codec ID : S_TEXT/UTF8
Codec ID/Info : UTF-8 Plain Text
Title : Sub-forced
Language : Russian
Default : Yes
Forced : No
Text #2
ID : 7
Format : UTF-8
Codec ID : S_TEXT/UTF8
Codec ID/Info : UTF-8 Plain Text
Title : Sub-Blu-ray
Language : Russian
Default : No
Forced : No
Text #3
ID : 8
Format : UTF-8
Codec ID : S_TEXT/UTF8
Codec ID/Info : UTF-8 Plain Text
Title : Sub-Notabenoid
Language : Russian
Default : No
Forced : No
Text #4
ID : 9
Format : UTF-8
Codec ID : S_TEXT/UTF8
Codec ID/Info : UTF-8 Plain Text
Title : Sub-full
Language : English
Default : No
Forced : No
Text #5
ID : 10
Format : UTF-8
Codec ID : S_TEXT/UTF8
Codec ID/Info : UTF-8 Plain Text
Title : Sub-SDH
Language : English
Default : No
Forced : No
Text #6
ID : 11
Format : UTF-8
Codec ID : S_TEXT/UTF8
Codec ID/Info : UTF-8 Plain Text
Title : Sub-SDH-COLORED
Language : English
Default : No
Forced : No
Menu
00:00:00.000 : :00:00:00.000
00:11:24.684 : :00:11:24.684
00:16:48.049 : :00:16:48.049
00:25:38.078 : :00:25:38.078
00:35:51.649 : :00:35:51.649
00:44:22.576 : :00:44:22.576
00:52:12.921 : :00:52:12.921
01:01:11.376 : :01:01:11.376
01:08:12.213 : :01:08:12.213
01:16:48.937 : :01:16:48.937
01:22:39.663 : :01:22:39.663
01:29:21.731 : :01:29:21.731
01:40:43.913 : :01:40:43.913
01:50:47.766 : :01:50:47.766
02:02:46.984 : :02:02:46.984
02:09:58.958 : :02:09:58.958
Скриншоты
Source vs Encode


Скачать

Скачать торрент!

Как скачивать? · Что такое торрент? · Рейтинг и ограничения

Сайт не распространяет и не хранит электронные версии произведений, а лишь предоставляет доступ к создаваемому пользователями каталогу ссылок на торрент-файлы, которые содержат только списки хеш-сумм

[Профиль] [ЛС]
Показать сообщения:    
Ответить на тему

Текущее время: Сегодня 07:53

Часовой пояс: GMT + 4



Вы не можете начинать темы
Вы не можете отвечать на сообщения
Вы не можете редактировать свои сообщения
Вы не можете удалять свои сообщения
Вы не можете голосовать в опросах
Вы не можете прикреплять файлы к сообщениям
Вы не можете скачивать файлы