Таинство / The Sacrament (Тай Уэст / Ti West) [2013, США, ужасы, триллер, BDRip 720p] VO (datynet) + Original (Eng) + Subs (Rus, Eng)

Ответить на тему
 
Автор Сообщение

user ®

Стаж: 7 лет 7 месяцев

Сообщений: 20008

Пост Пост: #1 от 19-Ноя-2014 00:00

[Цитировать]

Таинство / The Sacrament Страна: США
Жанр: ужасы, триллер
Год выпуска: 2013
Продолжительность: 01:39:08
Перевод: Одноголосый закадровый Антон Агапов aka datynet
Cубтитры: английские (SDH), русские (tоlmаkоff)
Оригинальная аудиодорожка: английский
Режиссер: Тай Уэст / Ti West
В ролях: Эми Саймец, Джо Сванберг, Кейт Лин Шейл, Эй Джей Боуэн, Джин Джонс, Эндрю Неннингер, Шоун Парсонс, Мэдисон Эбшер, Донна Биско, Conphidance
Описание:
Два журналиста едут к родственнику одного из них, который проживает в отдаленной коммуне, жители которой подчиняются таинственному отцу. Не сложно догадаться, что для героев ничем хорошим эта поездка не закончится…
- || || -Тип релиза: BDRip 720p (рип от HDWinG)

Контейнер: MKV
Видео: AVC (x264), 1280x720 (16:9) at 23,976 fps, 7500 Кbps, 0.339 bpp
Аудио 1: AC3; 192 Kbps; CBR; 2 ch; 48 khz | VO - datynet |
Аудио 2: AC3; 640 Kbps; CBR; 6 ch; 48 khz | Английский |
Формат субтитров: softsub (SRT)
Скриншоты || x264 Info || MediaInfo || Notes
Notes: Аудио дорожка №1 взята с этой [url=http://***/forum/viewtopic.php?t=4847779]раздачи[/url], thx: CmapbluDpyr
Русские субтитры взяты с этой [url=http://***/forum/viewtopic.php?t=4835896]раздачи[/url], thx: massiveUNKLE
в них были поправлены многие места
MediaInfo
Общее
Уникальный идентификатор                 : 193686866709096997118774830905812942532 (0x91B6BBD006637A438E786F191B317EC4)
Полное имя                               : Таинство.2013.L1.720p.BluRay.x264-HDWinG.mkv
Формат                                   : Matroska
Версия формата                           : Version 4 / Version 2
Размер файла                             : 5,77 Гбайт
Продолжительность                        : 1 ч. 39 м.
Общий поток                              : 8334 Кбит/сек
Название фильма                          : The Sacrament [2013] [720p] VO
Дата кодирования                         : UTC 2014-11-17 10:13:40
Программа кодирования                    : mkvmerge v7.3.0 ('Nouages') 32bit built on Oct 22 2014 18:44:01
Библиотека кодирования                   : libebml v1.3.0 + libmatroska v1.4.1
Видео
Идентификатор                            : 1
Формат                                   : AVC
Формат/Информация                        : Advanced Video Codec
Профиль формата                          : High@L4.1
Параметр CABAC формата                   : Да
Параметр ReFrames формата                : 9 кадров
Идентификатор кодека                     : V_MPEG4/ISO/AVC
Продолжительность                        : 1 ч. 39 м.
Битрейт                                  : 7500 Кбит/сек
Ширина                                   : 1280 пикселей
Высота                                   : 720 пикселей
Соотношение сторон                       : 16:9
Режим частоты кадров                     : Постоянный
Частота кадров                           : 23,976 кадра/сек
Цветовое пространство                    : YUV
Субдискретизация насыщенности            : 4:2:0
Битовая глубина                          : 8 бит
Тип развёртки                            : Прогрессивная
Бит/(Пиксели*Кадры)                      : 0.339
Размер потока                            : 5,08 Гбайт (88%)
Заголовок                                : profile.php?mode=viewprofile&u=22488948
Библиотека кодирования                   : x264 core 133 r2334 a3ac64b
Настройки программы                      : cabac=1 / ref=9 / deblock=1:-3:-3 / analyse=0x3:0x133 / me=umh / subme=10 / psy=1 / psy_rd=1.10:0.00 / mixed_ref=1 / me_range=48 / chroma_me=1 / trellis=2 / 8x8dct=1 / cqm=0 / deadzone=21,11 / fast_pskip=0 / chroma_qp_offset=-2 / threads=12 / lookahead_threads=1 / sliced_threads=0 / nr=0 / decimate=0 / interlaced=0 / bluray_compat=0 / constrained_intra=0 / bframes=8 / b_pyramid=2 / b_adapt=2 / b_bias=0 / direct=3 / weightb=1 / open_gop=0 / weightp=2 / keyint=360 / keyint_min=2 / scenecut=40 / intra_refresh=0 / rc_lookahead=0 / rc=2pass / mbtree=0 / bitrate=7500 / ratetol=1.0 / qcomp=0.70 / qpmin=0 / qpmax=69 / qpstep=4 / cplxblur=20.0 / qblur=0.5 / vbv_maxrate=50000 / vbv_bufsize=30000 / nal_hrd=none / ip_ratio=1.40 / pb_ratio=1.30 / aq=1:1.00
Язык                                     : English
Default                                  : Да
Forced                                   : Нет
Аудио #1
Идентификатор                            : 2
Формат                                   : AC-3
Формат/Информация                        : Audio Coding 3
Расширение режима                        : CM (complete main)
Параметр Endianness формата              : Big
Идентификатор кодека                     : A_AC3
Продолжительность                        : 1 ч. 39 м.
Вид битрейта                             : Постоянный
Битрейт                                  : 192 Кбит/сек
Каналы                                   : 2 канала
Расположение каналов                     : Front: L R
Частота                                  : 48,0 КГц
Битовая глубина                          : 16 бит
Метод сжатия                             : С потерями
Размер потока                            : 136 Мбайт (2%)
Заголовок                                : VO [datynet]
Язык                                     : Russian
Default                                  : Да
Forced                                   : Нет
Аудио #2
Идентификатор                            : 3
Формат                                   : AC-3
Формат/Информация                        : Audio Coding 3
Расширение режима                        : CM (complete main)
Параметр Endianness формата              : Big
Идентификатор кодека                     : A_AC3
Продолжительность                        : 1 ч. 39 м.
Вид битрейта                             : Постоянный
Битрейт                                  : 640 Кбит/сек
Каналы                                   : 6 каналов
Расположение каналов                     : Front: L C R, Side: L R, LFE
Частота                                  : 48,0 КГц
Битовая глубина                          : 16 бит
Метод сжатия                             : С потерями
Размер потока                            : 454 Мбайт (8%)
Язык                                     : English
Default                                  : Нет
Forced                                   : Нет
Текст #1
Идентификатор                            : 4
Формат                                   : UTF-8
Идентификатор кодека                     : S_TEXT/UTF8
Идентификатор кодека/Информация          : UTF-8 Plain Text
Язык                                     : English
Default                                  : Нет
Forced                                   : Нет
Текст #2
Идентификатор                            : 5
Формат                                   : UTF-8
Идентификатор кодека                     : S_TEXT/UTF8
Идентификатор кодека/Информация          : UTF-8 Plain Text
Заголовок                                : [tоlmаkоff]
Язык                                     : Russian
Default                                  : Нет
Forced                                   : Нет
Меню
00:00:00.000                             : en:
00:05:00.300                             : en:
00:09:31.445                             : en:
00:15:11.702                             : en:
00:19:42.514                             : en:
00:24:58.705                             : en:
00:30:14.479                             : en:
00:36:28.728                             : en:
00:42:16.492                             : en:
00:47:49.241                             : en:
00:57:32.448                             : en:
01:02:49.140                             : en:
01:08:27.895                             : en:
01:17:34.900                             : en:
01:20:50.929                             : en:
01:26:48.244                             : en:
x264 Infox264 [info]: frame I:546 Avg QP:15.41 size:129681
x264 [info]: frame P:33691 Avg QP:17.65 size: 63974
x264 [info]: frame B:108387 Avg QP:18.91 size: 30911
Encode vs WEB-DL
Encode...........[url=http://***/forum/viewtopic.php?t=4835896]WEB-DL 720p[/url]

Скачать

Скачать торрент!

Как скачивать? · Что такое торрент? · Рейтинг и ограничения

Сайт не распространяет и не хранит электронные версии произведений, а лишь предоставляет доступ к создаваемому пользователями каталогу ссылок на торрент-файлы, которые содержат только списки хеш-сумм

[Профиль] [ЛС]
Показать сообщения:    
Ответить на тему

Текущее время: Сегодня 13:40

Часовой пояс: GMT + 4



Вы не можете начинать темы
Вы не можете отвечать на сообщения
Вы не можете редактировать свои сообщения
Вы не можете удалять свои сообщения
Вы не можете голосовать в опросах
Вы не можете прикреплять файлы к сообщениям
Вы не можете скачивать файлы