Загадки шамана (Артур Меркулов) [2009-2014, Короткометражная анимация, WEBRip-AVC 720p]

Ответить на тему
 
Автор Сообщение

user ®

Стаж: 7 лет 7 месяцев

Сообщений: 20008

Пост Пост: #1 от 18-Ноя-2014 20:50

[Цитировать]

-Загадки шамана- Год выпуска: 2009-2014
Страна: Россия
Жанр: Короткометражная анимация
Продолжительность: 3 x ~00:02:00
Перевод: Не требуется
субтитры: отсутствуют
Релиз: -Режиссер: Артур Меркулов-Описание: Всё абсурдное, на первый взгляд, в конце-концов обретает логическое объяснение.-Качество: WEBRip-AVC (720)
Формат: MP4
Видео кодек: AVC
Аудио кодек: AAC
Видео: 1 280x720, 25 fps, ~2 806 kbps avg, 0.122 bit/pixel
Аудио: 44.1 kHz, 2ch, ~152 kbps avg

MediaInfo
Общее
Полное имя : C:\Загадки шамана\Zagadki shamana.2009.WEBRip-AVC\Zagadki shamana.2009.WEBRip-AVC.part 1.mp4
Формат : MPEG-4
Профиль формата : Base Media
Идентификатор кодека : isom
Размер файла : 30,5 Мбайт
Продолжительность : 1 м. 26 с.
Общий поток : 2962 Кбит/сек
Дата кодирования : UTC 2011-03-24 07:47:56
Дата пометки : UTC 2011-03-24 07:47:56
Видео
Идентификатор : 1
Формат : AVC
Формат/Информация : Advanced Video Codec
Профиль формата : Baseline@L4.0
Параметр CABAC формата : Нет
Параметр ReFrames формата : 1 кадр
Идентификатор кодека : avc1
Идентификатор кодека/Информация : Advanced Video Coding
Продолжительность : 1 м. 26 с.
Вид битрейта : Переменный
Битрейт : 2806 Кбит/сек
Ширина : 1280 пикс.
Высота : 720 пикс.
Соотношение сторон : 16:9
Режим частоты кадров : Постоянный
Частота кадров : 25,000 кадр/сек
Цветовое пространство : YUV
Подвыборка цветности : 4:2:0
Битовая глубина : 8 бит
Тип развёртки : Прогрессивная
Бит/(Пиксели*Кадры) : 0.122
Размер потока : 28,9 Мбайт (95%)
Дата кодирования : UTC 2011-03-24 07:47:56
Дата пометки : UTC 2011-03-24 07:47:56
Аудио
Идентификатор : 2
Формат : AAC
Формат/Информация : Advanced Audio Codec
Профиль формата : LC
Идентификатор кодека : 40
Продолжительность : 1 м. 26 с.
Вид битрейта : Переменный
Битрейт : 152 Кбит/сек
Канал(ы) : 2 канала(ов)
Расположение каналов : Front: L R
Частота : 44,1 КГц
Метод сжатия : С потерями
Размер потока : 1,56 Мбайт (5%)
Дата кодирования : UTC 2011-03-24 07:47:56
Дата пометки : UTC 2011-03-24 07:47:56
Скачать

Скачать торрент!

Как скачивать? · Что такое торрент? · Рейтинг и ограничения

Сайт не распространяет и не хранит электронные версии произведений, а лишь предоставляет доступ к создаваемому пользователями каталогу ссылок на торрент-файлы, которые содержат только списки хеш-сумм

[Профиль] [ЛС]
Показать сообщения:    
Ответить на тему

Текущее время: Сегодня 20:18

Часовой пояс: GMT + 4



Вы не можете начинать темы
Вы не можете отвечать на сообщения
Вы не можете редактировать свои сообщения
Вы не можете удалять свои сообщения
Вы не можете голосовать в опросах
Вы не можете прикреплять файлы к сообщениям
Вы не можете скачивать файлы