Неразлучные / Чару и Латха / Charulatha (Пон Кумаран / Pon Kumaran) [2012, Индия, Триллер, мистика, ужасы, DVDRip] DVO (DeadSno & den904)

Ответить на тему
 
Автор Сообщение

user ®

Стаж: 12 лет

Сообщений: 15092

Пост Пост: #1 от 18-Ноя-2014 20:50

[Цитировать]

Неразлучные / Charulatha-=Мы с тобой две половинки одного целого=-
-Страна: Индия
Жанр: Триллер, мистика, ужасы
Год выпуска: 2012
Продолжительность: 01:57:34-Перевод: Любительский (двухголосый закадровый) - DeadSno & den904
Субтитры: Нет--Режиссер: Пон Кумаран / Pon Kumaran-В ролях: Приямани, Саранья Понваннан, Ситха, Равишанкар, Аратхи, Рави Шанкар--Описание: Фильм рассказывает историю Чару — выжившей половины сиамских близнецов, которая переезжает из родного Велагани, чтобы забыть о вине перед сестрой. Мысленные возвраты в детство Чару показывают одновременно грустные и счастливые отношения сестёр и их решимость оставаться вместе, которая со временем перерастает в обузу и в конце концов ведет к разделению. После возвращения Чару в Велагани, где она навещает свою больную мать, дух умершей сестры стремительно врывается в жизнь Чару... (с) Honey-- --Качество видео: DVDRip
Формат видео: AVI-Видео: 720x304 (2.37:1), 25 fps, XviD build 50 ~1569 kbps avg, 0.29 bit/pixel
Аудио: 48 kHz, AC3 Dolby Digital, 2/0 (L,R) ch, ~192 kbps--Сэмпл / Sample
Сэмпл / Sample (женский голос)--Творческая озвучка: DeadSno & den904 (спасибо!)
Перевод на русский язык: Honey&Haseena (спасибо!)
Риппер: soso4eg-- -
-
Скриншот с названием
-
Скриншоты
-
MI
General
Complete name : C:\INDIYA\Nerazluchnie.2012.DVDRip.XviD.Kolobok-soso4eg.avi
Format : AVI
Format/Info : Audio Video Interleave
File size : 1.45 GiB
Duration : 1h 57mn
Overall bit rate : 1 772 Kbps
Movie name : Charulatha.2012.DVDRip.XviD.Kolobok-soso4eg
Director : soso4eg
Writing application : VirtualDubMod 1.5.10.2 (build 2540/release)
Comment : пер. LDVO по суб. Honey&Haseena
Video
ID : 0
Format : MPEG-4 Visual
Format profile : Advanced Simple@L5
Format settings, BVOP : 2
Format settings, QPel : No
Format settings, GMC : No warppoints
Format settings, Matrix : Default (H.263)
Codec ID : XVID
Codec ID/Hint : XviD
Duration : 1h 57mn
Bit rate : 1 570 Kbps
Width : 720 pixels
Height : 304 pixels
Display aspect ratio : 2.35:1
Frame rate : 25.000 fps
Color space : YUV
Chroma subsampling : 4:2:0
Bit depth : 8 bits
Scan type : Progressive
Compression mode : Lossy
Bits/(Pixel*Frame) : 0.287
Stream size : 1.29 GiB (89%)
Writing library : XviD 1.2.1 (UTC 2008-12-04)
Audio
ID : 1
Format : AC-3
Format/Info : Audio Coding 3
Mode extension : CM (complete main)
Format settings, Endianness : Big
Codec ID : 2000
Duration : 1h 57mn
Bit rate mode : Constant
Bit rate : 192 Kbps
Channel(s) : 2 channels
Channel positions : Front: L R
Sampling rate : 48.0 KHz
Bit depth : 16 bits
Compression mode : Lossy
Stream size : 161 MiB (11%)
Alignment : Split accross interleaves
Interleave, duration : 40 ms (1.00 video frame)
Interleave, preload duration : 500 ms

-
-
Скачать

Скачать торрент! Неразлучные / Чару и Латха / Charulatha (Пон Кумаран / Pon Kumaran) [2012, Индия, Триллер, мистика, ужасы, DVDRip] DVO (DeadSno & den904)

Как скачивать? · Что такое торрент? · Рейтинг и ограничения

Сайт не распространяет и не хранит электронные версии произведений, а лишь предоставляет доступ к создаваемому пользователями каталогу ссылок на торрент-файлы, которые содержат только списки хеш-сумм

[Профиль] [ЛС]
Показать сообщения:    
Ответить на тему

Текущее время: Сегодня 06:25

Часовой пояс: GMT + 4



Вы не можете начинать темы
Вы не можете отвечать на сообщения
Вы не можете редактировать свои сообщения
Вы не можете удалять свои сообщения
Вы не можете голосовать в опросах
Вы не можете прикреплять файлы к сообщениям
Вы не можете скачивать файлы