Приостановленное решение / Двенадцать / Ek Ruka Hua Faisla (Басу Чаттерджи / Basu Chatterjee) [1986, Индия, Драма, DVDRip-AVC] MVO (Zee Tv)

Ответить на тему
 
Автор Сообщение

user ®

Стаж: 13 лет

Сообщений: 15070

Пост Пост: #1 от 18-Ноя-2014 09:40

[Цитировать]

Приостановленное решение / Двенадцать / Ek Ruka Hua Faisla
Страна: Индия
Жанр: Драма
Год выпуска: 1986
Продолжительность: 02:07:31
Перевод: Профессиональный (многоголосый закадровый) Zee Tv
Cубтитры: нет
Режиссер: Басу Чаттерджи / Basu Chatterjee
В ролях: Дипак Кеджривал, Амитабх Шривастав, Панкадж Капур, Субхаш Удгхате, Хемант Мишра, Анну Капур, Азиз Кхуреши, С.М. Захир, М.К. Реин, К.К. Реин, Суббирадж, Шайлендра Гоель, К.Д. Синду
Описание: Двенадцать мужчин собираются, чтобы вынести приговор молодому человеку, который обвиняется в убийстве своего престарелого отца, однако только один из заседателей не верит в виновность обвиняемого и требует пересмотра дела. Смогут ли остальные заседатели переубедить несговорчивого коллегу, и какой вердикт будет вынесен молодому человеку?
Доп. информация: Сведение звука: oktober (Спасибо!)
Временами идёт лёгкое заикание звука, так вещал телеканал Zee Tv.
Сэмпл: http://multi-up.com/1013761
Качество видео: DVDRip-AVC
Формат видео: MKV
Видео: 640x480 (4:3), 29.970 fps, AVC, ~668 Kbps, 0.071 bits/pixel
Аудио: Русский, 44.1 KHz, МР3, 2 ch, 128 Kbps
MediaInfo
General
Complete name : F:\Dvenadzat.1986.DVDRip.X264.Oktober.mkv
Format : Matroska
File size : 728 MiB
Duration : 2h 7mn
Overall bit rate : 798 Kbps
Encoded date : UTC 2014-11-12 14:17:28
Writing application : mkvmerge v5.6.0 ('Kenya Kane') built on May 27 2012 16:44:04
Writing library : libebml v1.2.3 + libmatroska v1.3.0
Video
ID : 1
Format : AVC
Format/Info : Advanced Video Codec
Format profile : High@L3.0
Format settings, CABAC : Yes
Format settings, ReFrames : 3 frames
Muxing mode : Container profile=Unknown@3.0
Codec ID : V_MPEG4/ISO/AVC
Duration : 2h 7mn
Bit rate : 654 Kbps
Nominal bit rate : 668 Kbps
Width : 640 pixels
Height : 480 pixels
Display aspect ratio : 4/3
Frame rate : 29.970 fps
Resolution : 24 bits
Colorimetry : 4:2:0
Scan type : Progressive
Bits/(Pixel*Frame) : 0.071
Stream size : 596 MiB (82%)
Writing library : x264 core 79
Encoding settings : cabac=1 / ref=3 / deblock=1:0:0 / analyse=0x3:0x113 / me=hex / subme=7 / psy=1 / psy_rd=1.0:0.0 / mixed_ref=1 / me_range=16 / chroma_me=1 / trellis=1 / 8x8dct=1 / cqm=0 / deadzone=21,11 / chroma_qp_offset=-2 / threads=6 / nr=0 / decimate=1 / mbaff=0 / constrained_intra=0 / bframes=3 / b_pyramid=0 / b_adapt=1 / b_bias=0 / direct=1 / wpredb=1 / wpredp=2 / keyint=300 / keyint_min=30 / scenecut=40 / rc_lookahead=40 / rc=abr / mbtree=1 / bitrate=668 / ratetol=1.0 / qcomp=0.60 / qpmin=10 / qpmax=51 / qpstep=4 / ip_ratio=1.40 / aq=1:1.00
Audio
ID : 2
Format : MPEG Audio
Format version : Version 1
Format profile : Layer 3
Codec ID : A_MPEG/L3
Codec ID/Hint : MP3
Duration : 2h 7mn
Bit rate mode : Constant
Bit rate : 128 Kbps
Channel(s) : 2 channels
Sampling rate : 44.1 KHz
Resolution : 16 bits
Stream size : 117 MiB (16%)
Скриншоты
Скачать

Скачать торрент! Приостановленное решение / Двенадцать / Ek Ruka Hua Faisla (Басу Чаттерджи / Basu Chatterjee) [1986, Индия, Драма, DVDRip-AVC] MVO (Zee Tv)

Как скачивать? · Что такое торрент? · Рейтинг и ограничения

Сайт не распространяет и не хранит электронные версии произведений, а лишь предоставляет доступ к создаваемому пользователями каталогу ссылок на торрент-файлы, которые содержат только списки хеш-сумм

[Профиль] [ЛС]
Показать сообщения:    
Ответить на тему

Текущее время: Сегодня 16:10

Часовой пояс: GMT + 4



Вы не можете начинать темы
Вы не можете отвечать на сообщения
Вы не можете редактировать свои сообщения
Вы не можете удалять свои сообщения
Вы не можете голосовать в опросах
Вы не можете прикреплять файлы к сообщениям
Вы не можете скачивать файлы