Домашнее видео / Sex Tape (Джейк Кэздан / Jake Kasdan) [2014, США, комедия, BDRip-AVC] Dub + Dub Ukr + Sub Eng + Original Eng

Ответить на тему
 
Автор Сообщение

user ®

Стаж: 7 лет 7 месяцев

Сообщений: 20008

Пост Пост: #1 от 18-Ноя-2014 09:40

[Цитировать]

Домашнее видео / Sex Tape
-
Год выпуска: 2014
Выпущено: США
Продолжительность: 01:34:34
Жанр: Комедия
Перевод 1: Профессиональный (дублированный) Blu-ray CEE
Перевод 2: Украинская дублированная звуковая дорожка Blu-ray CEE
Перевод 3: Оригинальная звуковая дорожка
Cубтитры: Английские
Режиссер: Джейк Кэздан / Jake Kasdan
В ролях: Кэмерон Диаз, Джейсон Сигел, Роб Кордри, Элли Кемпер, Роб Лоу, Нат Факсон, Нэнси Ленехан, Жизелль Эйзенберг, Харрисон Хольцер, Себастьян Хеджес Томас
О фильме: Семейная пара, оставшись на одну ночь без детей, решает повеселиться и записать пикантное видео со своим участием. На следующее утро они обнаруживают, что видео видели не только они…
-
Релиз:
Автор: Joker
-
Контейнер: MKV
Качество: BDRip-AVC (источник: / Blu-ray CEE / 1080p) (Sex_Tape_2014_BD_NiP)
Видео: 1138x614 (2.40:1), 23.976 fps, MPEG-4 AVC, ~3323 kbps avg, 0.198 bit/pixel
Аудио #1: 48 kHz, AC3 Dolby Digital, 3/2 (L,C,R,l,r) + LFE ch, ~448 kbps |Russian|
Аудио #2: 48 kHz, AC3 Dolby Digital, 3/2 (L,C,R,l,r) + LFE ch, ~448 kbps |Ukraine|
Аудио #3: 48 kHz, AC3 Dolby Digital, 3/2 (L,C,R,l,r) + LFE ch, ~448 kbps |English|
Субтитры: Английские (Полные)
Главы: Присутствуют, сохранены оригинальные
Размер: 3,15 GB
Сэмпл: скачать
-
Скриншоты MediaInfo
Уникальный идентификатор : 253319506325907232929781703426128514148 (0xBE938FF120568393BD4368E87FFC8C64)
Полное имя : D:\Sex.Tape.2014.TRIPLE.BDRip-AVC.x264.AC3.-HQCLUB.mkv
Формат : Matroska
Версия формата : Version 2
Размер файла : 3,15 Гбайт
Продолжительность : 1 ч. 34 м.
Общий поток : 4763 Кбит/сек
Дата кодирования : UTC 2014-11-16 12:42:39
Программа кодирования : mkvmerge v5.2.0 ('I can't explain') built on Dec 18 2011 18:12:03
Библиотека кодирования : libebml v1.2.3 + libmatroska v1.3.0
Видео
Идентификатор : 1
Формат : AVC
Формат/Информация : Advanced Video Codec
Профиль формата : High@L4.1
Параметр CABAC формата : Да
Параметр ReFrames формата : 11 кадров
Идентификатор кодека : V_MPEG4/ISO/AVC
Продолжительность : 1 ч. 34 м.
Битрейт : 3324 Кбит/сек
Ширина : 1138 пикселей
Высота : 614 пикселей
Соотношение сторон : 1,853
Частота кадров : 23,976 кадра/сек
Цветовое пространство : YUV
Субдискретизация насыщенности : 4:2:0
Битовая глубина : 8 бит
Тип развёртки : Прогрессивная
Бит/(Пиксели*Кадры) : 0.198
Размер потока : 2,20 Гбайт (70%)
Заголовок : Домашнее видео / Sex Tape (2014) BDRip-AVC by HQCLUB [Joker]
Библиотека кодирования : x264 core 142 r2431 ac76440
Настройки программы : cabac=1 / ref=11 / deblock=1:-3:-2 / analyse=0x3:0x113 / me=umh / subme=11 / psy=1 / psy_rd=1.00:0.00 / mixed_ref=1 / me_range=32 / chroma_me=1 / trellis=2 / 8x8dct=1 / cqm=0 / deadzone=21,11 / fast_pskip=1 / chroma_qp_offset=-4 / threads=6 / lookahead_threads=1 / sliced_threads=0 / nr=0 / decimate=1 / interlaced=0 / bluray_compat=0 / constrained_intra=0 / bframes=11 / b_pyramid=2 / b_adapt=2 / b_bias=0 / direct=1 / weightb=1 / open_gop=0 / weightp=2 / keyint=230 / keyint_min=23 / scenecut=40 / intra_refresh=0 / rc_lookahead=40 / rc=crf / mbtree=1 / crf=18.6 / qcomp=0.70 / qpmin=0 / qpmax=69 / qpstep=4 / vbv_maxrate=50000 / vbv_bufsize=62500 / crf_max=0.0 / nal_hrd=none / filler=0 / ip_ratio=1.40 / aq=1:0.90
Язык : English
Аудио #1
Идентификатор : 2
Формат : AC-3
Формат/Информация : Audio Coding 3
Расширение режима : CM (complete main)
Идентификатор кодека : A_AC3
Продолжительность : 1 ч. 34 м.
Вид битрейта : Постоянный
Битрейт : 448 Кбит/сек
Каналы : 6 каналов
Расположение каналов : Front: L C R, Side: L R, LFE
Частота : 48,0 КГц
Битовая глубина : 16 бит
Метод сжатия : С потерями
Размер потока : 303 Мбайт (9%)
Заголовок : АС3 5.1 @ 448 kbps - Dub, EUR
Язык : Russian
Аудио #2
Идентификатор : 3
Формат : AC-3
Формат/Информация : Audio Coding 3
Расширение режима : CM (complete main)
Идентификатор кодека : A_AC3
Продолжительность : 1 ч. 34 м.
Вид битрейта : Постоянный
Битрейт : 448 Кбит/сек
Каналы : 6 каналов
Расположение каналов : Front: L C R, Side: L R, LFE
Частота : 48,0 КГц
Битовая глубина : 16 бит
Метод сжатия : С потерями
Размер потока : 303 Мбайт (9%)
Заголовок : АС3 5.1 @ 448 kbps - Dub, EUR
Язык : Ukrainian
Аудио #3
Идентификатор : 4
Формат : AC-3
Формат/Информация : Audio Coding 3
Расширение режима : CM (complete main)
Идентификатор кодека : A_AC3
Продолжительность : 1 ч. 34 м.
Вид битрейта : Постоянный
Битрейт : 448 Кбит/сек
Каналы : 6 каналов
Расположение каналов : Front: L C R, Side: L R, LFE
Частота : 48,0 КГц
Битовая глубина : 16 бит
Метод сжатия : С потерями
Размер потока : 303 Мбайт (9%)
Заголовок : АС3 5.1 @ 448 kbps - Original
Язык : English
Текст
Идентификатор : 5
Формат : UTF-8
Идентификатор кодека : S_TEXT/UTF8
Идентификатор кодека/Информация : UTF-8 Plain Text
Заголовок : Full
Язык : English
Меню
00:00:00.000 : :Chapter 01
00:03:53.483 : :Chapter 02
00:09:34.073 : :Chapter 03
00:14:36.625 : :Chapter 04
00:20:05.287 : :Chapter 05
00:27:21.014 : :Chapter 06
00:34:03.666 : :Chapter 07
00:40:19.166 : :Chapter 08
00:45:21.635 : :Chapter 09
00:50:42.706 : :Chapter 10
00:57:41.541 : :Chapter 11
01:05:34.555 : :Chapter 12
01:11:51.682 : :Chapter 13
01:20:06.510 : :Chapter 14
01:25:16.736 : :Chapter 15
01:29:47.298 : :Chapter 16
x264 log
frame I:1800 Avg QP:14.64 size:110942
frame P:27775 Avg QP:18.27 size: 32762
frame B:106481 Avg QP:19.65 size: 12339
x264 [info]: consecutive B-frames: 2.0% 1.4% 4.4% 29.1% 14.0% 33.2% 6.4% 6.1% 0.8% 0.2% 0.7% 1.7%
ref P L0: 47.3% 8.5% 18.7% 6.5% 5.6% 3.7% 3.5% 1.7% 1.7% 1.3% 1.4% 0.1% 0.0%
ref B L0: 73.5% 11.8% 5.5% 2.9% 2.0% 1.6% 1.2% 0.8% 0.4% 0.2%
ref B L1: 93.1% 6.9%
Скачать

Скачать торрент!

Как скачивать? · Что такое торрент? · Рейтинг и ограничения

Сайт не распространяет и не хранит электронные версии произведений, а лишь предоставляет доступ к создаваемому пользователями каталогу ссылок на торрент-файлы, которые содержат только списки хеш-сумм

[Профиль] [ЛС]
Показать сообщения:    
Ответить на тему

Текущее время: Сегодня 13:51

Часовой пояс: GMT + 4



Вы не можете начинать темы
Вы не можете отвечать на сообщения
Вы не можете редактировать свои сообщения
Вы не можете удалять свои сообщения
Вы не можете голосовать в опросах
Вы не можете прикреплять файлы к сообщениям
Вы не можете скачивать файлы