Трансформеры: Эпоха истребления / Transformers: Age Of Extinction (Майкл Бэй / Michael Bay) [2014 г., США, Китай, фантастика, боевик, приключения, BDRip 720p] Dub + Sub (Rus, Ukr & Eng) + Original Eng

Ответить на тему
 
Автор Сообщение

user ®

Стаж: 7 лет 7 месяцев

Сообщений: 20008

Пост Пост: #1 от 18-Ноя-2014 06:30

[Цитировать]

Трансформеры: Эпоха истребления / Transformers: Age Of Extinction«Сражаться вместе... Или погибнуть вместе»- -Страна: США, Китай
Жанр: фантастика, боевик, приключения
Год выпуска: 2014
Продолжительность: 02:45:07
-Перевод: Профессиональный (дублированный) |Дубляж, Blu-ray CEE|
Cубтитры: Русские, украинские и английские
Оригинальная аудиодорожка: английский
-Режиссер: Майкл Бэй / Michael Bay
В ролях: Марк Уолберг, Никола Пельтц, Стэнли Туччи, Кинг, Титус Уэлливер, Джек Рейнор, Эбигейл Клейн, София Майлс, Келси Грэммер, Питер Каллен и др.
Описание: Автоботы и десептиконы покинули планету, оставив человечество собирать ее по кусочкам. Между тем группа могущественных бизнесменов и гениальных ученых пытается извлечь уроки из ошибок прошлого и улучшить технологии до такой степени, чтобы выйти за пределы контролируемого ранее. В это время другая группа — древних мощных трансформеров — берет Землю под прицел.
- -Релиз от -Сэмпл - http://multi-up.com/1013120.-Тип релиза: BDRip 720p
Контейнер: MKV
Источник: Transformers.Age.of.Extinction.2014.COMPLETE.BLURAY-BAKED
Видео: MPEG-4 AVC, 1280x534 (2.35:1), 23.976 fps, 9 713 Kbps (0.593 bit/pixel)
Аудио #1: AC-3, 48.0 KHz, 6 ch, 640 Kbps, CBR (Russian) |Дубляж, Blu-ray CEE|
Аудио #2: AC-3, 48.0 KHz, 6 ch, 640 Kbps, CBR (English)
Формат субтитров: softsub (SRT)
-» MediaInfo
General
Unique ID : 217371055245970692063587532923299331448 (0xA3882476901C0E8E862D1F387F367D78)
Complete name : D:\Transformers.Age.of.Extinction.2014.720p.BluRay.Rus.Eng.HDCLUB.mkv
Format : Matroska
Format version : Version 2
File size : 12.9 GiB
Duration : 2h 45mn
Overall bit rate : 11.2 Mbps
Movie name : Transformers: Age of Extinction (2014) - Release for HDCLUB
Encoded date : UTC 2014-11-13 23:37:41
Writing application : mkvmerge v3.4.0 ('Rapunzel') built on May 15 2010 09:38:20
Writing library : libebml v0.8.0 + libmatroska v0.9.0
Attachment : Yes
Video
ID : 1
Format : AVC
Format/Info : Advanced Video Codec
Format profile : High@L4.1
Format settings, CABAC : Yes
Format settings, ReFrames : 12 frames
Codec ID : V_MPEG4/ISO/AVC
Duration : 2h 45mn
Bit rate : 9 713 Kbps
Width : 1 280 pixels
Height : 534 pixels
Display aspect ratio : 2.40:1
Frame rate mode : Constant
Frame rate : 23.976 fps
Color space : YUV
Chroma subsampling : 4:2:0
Bit depth : 8 bits
Scan type : Progressive
Bits/(Pixel*Frame) : 0.593
Stream size : 11.2 GiB (87%)
Title : Transformers: Age of Extinction (2014) - Release for HDCLUB
Writing library : x264 core 142 r2479kMod dd79a61
Encoding settings : cabac=1 / ref=12 / deblock=1:-3:-3 / analyse=0x3:0x133 / me=umh / subme=10 / psy=1 / fade_compensate=0.00 / psy_rd=1.05:0.00 / mixed_ref=1 / me_range=24 / chroma_me=1 / trellis=2 / 8x8dct=1 / cqm=0 / deadzone=21,11 / fast_pskip=0 / chroma_qp_offset=-2 / threads=12 / lookahead_threads=3 / sliced_threads=0 / nr=0 / decimate=0 / interlaced=0 / bluray_compat=0 / constrained_intra=0 / fgo=0 / bframes=10 / b_pyramid=2 / b_adapt=2 / b_bias=0 / direct=3 / weightb=1 / open_gop=0 / weightp=2 / keyint=250 / keyint_min=23 / scenecut=40 / intra_refresh=0 / rc_lookahead=60 / rc=crf / mbtree=0 / crf=17.5000 / qcomp=0.70 / qpmin=0 / qpmax=69 / qpstep=4 / vbv_maxrate=50000 / vbv_bufsize=62500 / crf_max=0.0 / nal_hrd=none / filler=0 / ip_ratio=1.20 / pb_ratio=1.20 / aq=3:0.75 / zones=3567,3826,b=1.2/7898,7977,b=1.15/10516,10563,b=1.1/12632,12693,b=1.15/12744,12803,b=1.15/12883,12915,b=1.2/12956,13078,b=1.15/13122,13251,b=1.2/13405,13501,b=1.2/20945,28095,b=1.3/40076,40343,b=1.2/40556,40939,b=1.2/44048,44143,b=1.2/53381,53432,b=1.3/55036,55093,b=1.3/55912,56572,b=1.3/56829,57041,b=1.3/58904,58942,b=1.3/59072,59099,b=1.2/59312,59351,b=1.3/59736,59889,b=1.3/60510,60678,b=1.3/60814,60880,b=1.3/61175,61234,b=1.3/61506,61586,b=1.3/61889,61923,b=1.3/62002,62022,b=1.3/62283,62309,b=1.3/62816,63094,b=1.3/64775,65461,b=1.2/65696,66366,b=1.3/80200,80406,b=1.3/91515,91668,b=1.3/97550,97726,b=1.3/105787,106181,b=1.3/106313,106432,b=1.3/106565,106672,b=1.3/106762,106866,b=1.3/107257,107695,b=1.3/109836,110356,b=1.3/111038,111070,b=1.3/111415,111460,b=1.3/111838,112829,b=1.3/113108,115439,b=1.3/115615,115803,b=1.4/115992,120399,b=1.3/121313,124769,b=1.3/125368,150460,b=1.3/160903,161280,b=1.3/165519,166349,b=1.3/167903,169593,b=1.3/178482,179543,b=1.2/179943,179995,b=1.2/181577,181769,b=1.2/183183,183328,b=1.2/188010,188668,b=1.4/189149,226085,b=1.3/226086,237536,b=0.3
Language : English
Default : Yes
Forced : No
Audio #1
ID : 2
Format : AC-3
Format/Info : Audio Coding 3
Mode extension : CM (complete main)
Format settings, Endianness : Big
Codec ID : A_AC3
Duration : 2h 45mn
Bit rate mode : Constant
Bit rate : 640 Kbps
Channel(s) : 6 channels
Channel positions : Front: L C R, Side: L R, LFE
Sampling rate : 48.0 KHz
Bit depth : 16 bits
Compression mode : Lossy
Stream size : 756 MiB (6%)
Title : AC3 5.1 @ 640 kbps - DUB, Blu-ray CEE
Language : Russian
Default : Yes
Forced : No
Audio #2
ID : 3
Format : AC-3
Format/Info : Audio Coding 3
Mode extension : CM (complete main)
Format settings, Endianness : Big
Codec ID : A_AC3
Duration : 2h 45mn
Bit rate mode : Constant
Bit rate : 640 Kbps
Channel(s) : 6 channels
Channel positions : Front: L C R, Side: L R, LFE
Sampling rate : 48.0 KHz
Bit depth : 16 bits
Compression mode : Lossy
Stream size : 756 MiB (6%)
Title : AC3 5.1 @ 640 kbps
Language : English
Default : No
Forced : No
Text #1
ID : 4
Format : UTF-8
Codec ID : S_TEXT/UTF8
Codec ID/Info : UTF-8 Plain Text
Title : Forced, iTunes
Language : Russian
Default : Yes
Forced : No
Text #2
ID : 5
Format : UTF-8
Codec ID : S_TEXT/UTF8
Codec ID/Info : UTF-8 Plain Text
Title : iTunes
Language : Russian
Default : No
Forced : No
Text #3
ID : 6
Format : UTF-8
Codec ID : S_TEXT/UTF8
Codec ID/Info : UTF-8 Plain Text
Title : Blu-ray CEE
Language : Ukrainian
Default : No
Forced : No
Text #4
ID : 7
Format : UTF-8
Codec ID : S_TEXT/UTF8
Codec ID/Info : UTF-8 Plain Text
Title : SDH, iTunes
Language : English
Default : No
Forced : No
Text #5
ID : 8
Format : UTF-8
Codec ID : S_TEXT/UTF8
Codec ID/Info : UTF-8 Plain Text
Language : English
Default : No
Forced : No
Text #6
ID : 9
Format : UTF-8
Codec ID : S_TEXT/UTF8
Codec ID/Info : UTF-8 Plain Text
Title : SDH
Language : English
Default : No
Forced : No
Text #7
ID : 10
Format : UTF-8
Codec ID : S_TEXT/UTF8
Codec ID/Info : UTF-8 Plain Text
Title : SDH-COLORED
Language : English
Default : No
Forced : No
Menu
00:00:00.000 : en:Chapter 1
00:06:51.577 : en:Chapter 2
00:14:33.581 : en:Chapter 3
00:21:37.462 : en:Chapter 4
00:30:13.394 : en:Chapter 5
00:38:45.990 : en:Chapter 6
00:46:08.056 : en:Chapter 7
00:51:39.513 : en:Chapter 8
00:59:09.337 : en:Chapter 9
01:07:48.647 : en:Chapter 10
01:15:14.551 : en:Chapter 11
01:23:25.291 : en:Chapter 12
01:29:14.724 : en:Chapter 13
01:37:16.956 : en:Chapter 14
01:44:35.435 : en:Chapter 15
01:51:25.053 : en:Chapter 16
01:57:47.935 : en:Chapter 17
02:04:48.481 : en:Chapter 18
02:12:35.864 : en:Chapter 19
02:21:04.205 : en:Chapter 20
02:28:48.669 : en:Chapter 21
02:37:09.628 : en:Chapter 22
» Скриншот с названием фильма » Скриншоты
Скачать

Скачать торрент!

Как скачивать? · Что такое торрент? · Рейтинг и ограничения

Сайт не распространяет и не хранит электронные версии произведений, а лишь предоставляет доступ к создаваемому пользователями каталогу ссылок на торрент-файлы, которые содержат только списки хеш-сумм

[Профиль] [ЛС]
Показать сообщения:    
Ответить на тему

Текущее время: Сегодня 02:14

Часовой пояс: GMT + 4



Вы не можете начинать темы
Вы не можете отвечать на сообщения
Вы не можете редактировать свои сообщения
Вы не можете удалять свои сообщения
Вы не можете голосовать в опросах
Вы не можете прикреплять файлы к сообщениям
Вы не можете скачивать файлы