Что могло быть хуже? / What\'s the Worst That Could Happen? (Сэм Уайзман / Sam Weisman) [2001, США, Комедия, Криминал, HDTVRip 720p] Dub + MVO + 2х DVO + AVO (Карповский) + Sub Rus, Eng + Original Eng

Ответить на тему
 
Автор Сообщение

user ®

Стаж: 7 лет 7 месяцев

Сообщений: 20008

Пост Пост: #1 от 18-Ноя-2014 06:30

[Цитировать]

Что могло быть хуже? / What's the Worst That Could Happen?
Страна: США
Студия: Metro-Goldwyn-Mayer (MGM)
Жанр: Комедия, Криминал
Год выпуска: 2001
Продолжительность: 01:34:15
Перевод 1: Профессиональный (дублированный) - Гемини Фильм
Перевод 2: Профессиональный (многоголосый закадровый)
Перевод 3: Профессиональный (двухголосый закадровый) - НТВ+
Перевод 4: Профессиональный (двухголосый закадровый) - ТВ3
Перевод 5: Авторский (одноголосый закадровый) - А.Карповский
Cубтитры: русские, английские
Оригинальная аудиодорожка: английский
Режиссер: Сэм Уайзман / Sam Weisman
В ролях: Мартин Лоуренс, Дэнни ДеВито, Джон Легуизамо, Гленн Хедли, Кармен Эджого, Берни Мак, Ларри Миллер, Нора Данн, Ричард Шифф, Уильям Фихтнер (Martin Lawrence, Danny DeVito, John Leguizamo, Glenne Headly, Carmen Ejogo, Bernie Mac, Larry Miller, Nora Dunn Nora Dunn, Richard Schiff, William Fichtner)
Описание: Талантливый воришка Кевин, отправляясь на очередное "дело", не представлял, что казалось бы, простое ограбление пустующего дома выльется для него в длительную войну с его хозяином, не чистым на руку крупным бизнесменом Максом Фербэнксом. Дело в том, что девушка Кевина подарила ему своё фамильное кольцо, приносящее удачу его обладателю, ставшее своеобразным символом их любви. И именно это самое кольцо приглянулось Максу, поймавшему Кевина на месте с поличным, и он соверщенно наглым образом отбирает его прямо на глазах у полиции. Становясь делом принципа для обоих мужчин, это злопополучное кольцо явилось причиной масштабных "военных действий", в ходе которых возникают ситуации гораздо хуже и ...смешнее, чем они могли себе представить.
Доп. информация: Автор рипа - ZED. Добавлены пять русских дорожек. Дублированный перевод взят с лицензионной VHS от Гемини Фильм (собственная оцифровка, стерео в отличие от всех предыдущих раздач). Многоголосый перевод взят из [url=http://***/forum/viewtopic.php?t=490438]этой раздачи[/url]. Двухгоголосый перевод НТВ+ взят из [url=http://***/forum/viewtopic.php?t=4457719]раздачи edich2[/url]. Двухголосый перевод телеканала ТВ3 - собственная запись. Авторский перевод А.Карповского взят из [url=http://***/forum/viewtopic.php?t=579264]раздачи BestiaTanny[/url]. Так же добавлены русские и англиские субтитры, взятые из [url=http://***/forum/viewtopic.php?t=2861620]раздачи vladimiryakushin[/url]. Большое спасибо всем предоставившим материалы!
Во фрагменте 00:53:21-00:53:22 есть артефакты (сбой при записи - рассыпание на квадраты) длительностью менее секунды.
Сэмпл
Тип релиза: HDTVRip 720p
Контейнер: MKV
Видео: 1280x688p (1,85:1), 25 fps, x264, 6355 kbps
Аудио 1: Russian - Дублированный (Dolby AC3, 2 ch) 192 Kbps / 48 000 Hz
Аудио 2: Russian - Многоголосый (Dolby AC3, 5 ch) 384 Kbps / 48 000 Hz
Аудио 3: Russian - НТВ+(Dolby AC3, 2 ch) 192 Kbps / 48 000 Hz
Аудио 4: Russian - ТВ3 (Dolby AC3, 2 ch) 192 Kbps / 48 000 Hz
Аудио 5: Russian - Карповский (Dolby AC3, 5 ch) 384 Kbps / 48 000 Hz
Аудио 6: English (Dolby AC3, 6 ch) 448 Kbps / 48 000 Hz
Субтитры: Russian, English
MediaInfo
Уникальный идентификатор : 171551423611001060039919494772876471368 (0x810F9A3525CBCAACA69771EF94DD6C48)
Полное имя : Whats.the.Worst.That.Could.Happen.(2001).HDTVRip.720p.x264.RUS.ENG.AC3.Sub.RUS.ENG.mkv
Формат : Matroska
Версия формата : Version 4 / Version 2
Размер файла : 5,37 Гбайт
Продолжительность : 1 ч. 34 м.
Общий поток : 8153 Кбит/сек
Название фильма : Whats the Worst That Could Happen (2001) HDTVRip 720p
Дата кодирования : UTC 2014-11-11 18:50:26
Программа кодирования : mkvmerge v7.2.0 ('On Every Street') 32bit built on Sep 13 2014 15:42:11
Библиотека кодирования : libebml v1.3.0 + libmatroska v1.4.1
DURATION : 01:28:11.227000000
NUMBER_OF_FRAMES : 1815
NUMBER_OF_BYTES : 62231
_STATISTICS_WRITING_APP : mkvmerge v7.2.0 ('On Every Street') 32bit built on Sep 13 2014 15:42:11
_STATISTICS_WRITING_DATE_UTC : 2014-11-11 18:50:26
_STATISTICS_TAGS : BPS DURATION NUMBER_OF_FRAMES NUMBER_OF_BYTES
Видео
Идентификатор : 1
Формат : AVC
Формат/Информация : Advanced Video Codec
Профиль формата : High@L4.1
Параметр CABAC формата : Да
Параметр ReFrames формата : 9 кадров
Идентификатор кодека : V_MPEG4/ISO/AVC
Продолжительность : 1 ч. 34 м.
Битрейт : 6355 Кбит/сек
Ширина : 1280 пикселей
Высота : 688 пикселей
Соотношение сторон : 1,85:1
Режим частоты кадров : Постоянный
Частота кадров : 25,000 кадров/сек
Цветовое пространство : YUV
Субдискретизация насыщенности : 4:2:0
Битовая глубина : 8 бит
Тип развёртки : Прогрессивная
Бит/(Пиксели*Кадры) : 0.289
Размер потока : 4,08 Гбайт (76%)
Библиотека кодирования : x264 core 142 r2431 ac76440
Настройки программы : cabac=1 / ref=9 / deblock=1:-3:-3 / analyse=0x3:0x113 / me=umh / subme=9 / psy=1 / psy_rd=1.05:0.00 / mixed_ref=1 / me_range=32 / chroma_me=1 / trellis=2 / 8x8dct=1 / cqm=0 / deadzone=21,11 / fast_pskip=0 / chroma_qp_offset=-2 / threads=6 / lookahead_threads=1 / sliced_threads=0 / nr=0 / decimate=1 / interlaced=0 / bluray_compat=0 / constrained_intra=0 / bframes=6 / b_pyramid=2 / b_adapt=2 / b_bias=0 / direct=3 / weightb=1 / open_gop=0 / weightp=2 / keyint=250 / keyint_min=24 / scenecut=40 / intra_refresh=0 / rc_lookahead=50 / rc=2pass / mbtree=0 / bitrate=6355 / ratetol=1.0 / qcomp=0.60 / qpmin=10 / qpmax=51 / qpstep=4 / cplxblur=20.0 / qblur=0.5 / vbv_maxrate=62500 / vbv_bufsize=78125 / nal_hrd=none / filler=0 / ip_ratio=1.40 / pb_ratio=1.30 / aq=1:1.00
Язык : English
Default : Да
Forced : Нет
DURATION : 01:34:15.320000000
NUMBER_OF_FRAMES : 141383
NUMBER_OF_BYTES : 4494112888
_STATISTICS_WRITING_APP : mkvmerge v7.2.0 ('On Every Street') 32bit built on Sep 13 2014 15:42:11
_STATISTICS_WRITING_DATE_UTC : 2014-11-11 18:50:26
_STATISTICS_TAGS : BPS DURATION NUMBER_OF_FRAMES NUMBER_OF_BYTES
Аудио #1
Идентификатор : 2
Формат : AC-3
Формат/Информация : Audio Coding 3
Расширение режима : CM (complete main)
Параметр Endianness формата : Big
Идентификатор кодека : A_AC3
Продолжительность : 1 ч. 34 м.
Вид битрейта : Постоянный
Битрейт : 192 Кбит/сек
Каналы : 2 канала
Расположение каналов : Front: L R
Частота : 48,0 КГц
Битовая глубина : 16 бит
Метод сжатия : С потерями
Размер потока : 129 Мбайт (2%)
Заголовок : Дублированный
Язык : Russian
Default : Да
Forced : Нет
Аудио #2
Идентификатор : 3
Формат : AC-3
Формат/Информация : Audio Coding 3
Расширение режима : CM (complete main)
Параметр Endianness формата : Big
Идентификатор кодека : A_AC3
Продолжительность : 1 ч. 34 м.
Вид битрейта : Постоянный
Битрейт : 384 Кбит/сек
Каналы : 5 каналов
Расположение каналов : Front: L C R, Side: L R
Частота : 48,0 КГц
Битовая глубина : 16 бит
Метод сжатия : С потерями
Размер потока : 259 Мбайт (5%)
Заголовок : Многоголосый
Язык : Russian
Default : Нет
Forced : Нет
Аудио #3
Идентификатор : 4
Формат : AC-3
Формат/Информация : Audio Coding 3
Расширение режима : CM (complete main)
Параметр Endianness формата : Big
Идентификатор кодека : A_AC3
Продолжительность : 1 ч. 34 м.
Вид битрейта : Постоянный
Битрейт : 192 Кбит/сек
Каналы : 2 канала
Расположение каналов : Front: L R
Частота : 48,0 КГц
Битовая глубина : 16 бит
Метод сжатия : С потерями
Размер потока : 129 Мбайт (2%)
Заголовок : НТВ+
Язык : Russian
Default : Нет
Forced : Нет
Аудио #4
Идентификатор : 5
Формат : AC-3
Формат/Информация : Audio Coding 3
Расширение режима : CM (complete main)
Параметр Endianness формата : Big
Идентификатор кодека : A_AC3
Продолжительность : 1 ч. 34 м.
Вид битрейта : Постоянный
Битрейт : 192 Кбит/сек
Каналы : 2 канала
Расположение каналов : Front: L R
Частота : 48,0 КГц
Битовая глубина : 16 бит
Метод сжатия : С потерями
Размер потока : 129 Мбайт (2%)
Заголовок : ТВ3
Язык : Russian
Default : Нет
Forced : Нет
Аудио #5
Идентификатор : 6
Формат : AC-3
Формат/Информация : Audio Coding 3
Расширение режима : CM (complete main)
Параметр Endianness формата : Big
Идентификатор кодека : A_AC3
Продолжительность : 1 ч. 34 м.
Вид битрейта : Постоянный
Битрейт : 384 Кбит/сек
Каналы : 5 каналов
Расположение каналов : Front: L C R, Side: L R
Частота : 48,0 КГц
Битовая глубина : 16 бит
Метод сжатия : С потерями
Размер потока : 259 Мбайт (5%)
Заголовок : Карповский
Язык : Russian
Default : Нет
Forced : Нет
Аудио #6
Идентификатор : 7
Формат : AC-3
Формат/Информация : Audio Coding 3
Расширение режима : CM (complete main)
Параметр Endianness формата : Big
Идентификатор кодека : A_AC3
Продолжительность : 1 ч. 34 м.
Вид битрейта : Постоянный
Битрейт : 448 Кбит/сек
Каналы : 6 каналов
Расположение каналов : Front: L C R, Side: L R, LFE
Частота : 48,0 КГц
Битовая глубина : 16 бит
Метод сжатия : С потерями
Размер потока : 302 Мбайт (5%)
Заголовок : Original
Язык : English
Default : Нет
Forced : Нет
Текст #1
Идентификатор : 8
Формат : UTF-8
Идентификатор кодека : S_TEXT/UTF8
Идентификатор кодека/Информация : UTF-8 Plain Text
Язык : Russian
Default : Нет
Forced : Нет
Текст #2
Идентификатор : 9
Формат : UTF-8
Идентификатор кодека : S_TEXT/UTF8
Идентификатор кодека/Информация : UTF-8 Plain Text
Язык : English
Default : Нет
Forced : Нет
Скриншоты
Скачать

Скачать торрент!

Как скачивать? · Что такое торрент? · Рейтинг и ограничения

Сайт не распространяет и не хранит электронные версии произведений, а лишь предоставляет доступ к создаваемому пользователями каталогу ссылок на торрент-файлы, которые содержат только списки хеш-сумм

[Профиль] [ЛС]
Показать сообщения:    
Ответить на тему

Текущее время: Сегодня 14:34

Часовой пояс: GMT + 4



Вы не можете начинать темы
Вы не можете отвечать на сообщения
Вы не можете редактировать свои сообщения
Вы не можете удалять свои сообщения
Вы не можете голосовать в опросах
Вы не можете прикреплять файлы к сообщениям
Вы не можете скачивать файлы