Бабадук / The Babadook (Дженнифер Кент / Jennifer Kent) [2014, Австралия, ужасы, триллер, DVDRip] VO (Алексей Матвеев) + Sub Rus + Original Eng

Ответить на тему
 
Автор Сообщение

user ®

Стаж: 8 лет 1 месяц

Сообщений: 20008

Пост Пост: #1 от 17-Ноя-2014 09:45

[Цитировать]

Бабадук / The Babadook
Страна: Австралия
Жанр: ужасы, триллер
Год выпуска: 2014
Продолжительность: 1:33:27
Перевод: Одноголосый закадровый (Алексей Матвеев)
Cубтитры: русские, английские
Оригинальная аудиодорожка: английский
Режиссер: Дженнифер Кент / Jennifer Kent
В ролях: Эсси Дэвис, Ной Вайсман, Хейли МакЭлхинни, Дэниэл Хеншэлл, Барбара Уэст, Бенжамин Винспер, Тиффани Линдолл-Найт, Крэйг Бехенна, Крэйг Бехенна, Кармел Джонсон
Описание: Овдовевшую женщину с шестилетним сыном начинает преследовать монстр Бабадук — герой из рассказов-ужасов. Поначалу нервное и странное поведение матери и сына кажется объяснимым для окружающих — без мужской поддержки прожить им сложно. Но вскоре открываются истинные причины, ведь по ночам к ним является Бабадук, чтобы напугать до смерти…
Сэмпл: http://sendfile.su/1049272
Качество видео: WEB-DL
Формат видео: MKV
Видео: V_MPEG4, 1024x432, 23,976 к/сек, 2573 Кбит/сек
Аудио: Russian A_AC3, 48,0 КГц, 384 Кбит/сек, Front: L C R, Side: L R, LFE
Аудио 2: English A_AC3, 44,1 КГц, 384 Кбит/сек, Front: L C R, Side: L R, LFE
Формат субтитров: softsub (SRT)
MediaInfo
Общее
Уникальный идентификатор : 214748711283253384024089796572811018561 (0xA18F18EC727ED1ED88A0D783CED2C141)
Полное имя : D:\Торрент\The Babadook.2014.WEB-DL-AVC.AVO.Matveev.mkv
Формат : Matroska
Версия формата : Version 2
Размер файла : 2,18 Гбайт
Продолжительность : 1 ч. 33 м.
Общий поток : 3343 Кбит/сек
Дата кодирования : UTC 2014-11-16 14:22:27
Программа кодирования : mkvmerge v3.0.0 ('Hang up your Hang-Ups') built on Dec 12 2009 15:20:35
Библиотека кодирования : libebml v0.7.9 + libmatroska v0.8.1
Видео
Идентификатор : 1
Формат : AVC
Формат/Информация : Advanced Video Codec
Профиль формата : High@L4.1
Параметр CABAC формата : Да
Параметр ReFrames формата : 7 кадров
Идентификатор кодека : V_MPEG4/ISO/AVC
Продолжительность : 1 ч. 33 м.
Битрейт : 2573 Кбит/сек
Ширина : 1024 пикселя
Высота : 432 пикселя
Соотношение сторон : 2,40:1
Режим частоты кадров : Постоянный
Частота кадров : 23,976 кадра/сек
Цветовое пространство : YUV
Субдискретизация насыщенности : 4:2:0
Битовая глубина : 8 бит
Тип развёртки : Прогрессивная
Бит/(Пиксели*Кадры) : 0.243
Размер потока : 1,64 Гбайт (75%)
Заголовок : Rip by mihaildns
Библиотека кодирования : x264 core 125 r2208 d9d2288
Настройки программы : cabac=1 / ref=7 / deblock=1:-3:-3 / analyse=0x3:0x111 / me=umh / subme=9 / psy=1 / psy_rd=1.00:0.00 / mixed_ref=1 / me_range=48 / chroma_me=1 / trellis=2 / 8x8dct=1 / cqm=0 / deadzone=21,11 / fast_pskip=0 / chroma_qp_offset=-2 / threads=3 / lookahead_threads=1 / sliced_threads=0 / nr=0 / decimate=1 / interlaced=0 / bluray_compat=0 / constrained_intra=0 / bframes=9 / b_pyramid=2 / b_adapt=2 / b_bias=0 / direct=3 / weightb=1 / open_gop=0 / weightp=2 / keyint=250 / keyint_min=23 / scenecut=40 / intra_refresh=0 / rc_lookahead=50 / rc=2pass / mbtree=1 / bitrate=2573 / ratetol=1.0 / qcomp=0.60 / qpmin=0 / qpmax=69 / qpstep=4 / cplxblur=20.0 / qblur=0.5 / ip_ratio=1.40 / aq=1:1.10
Default : Нет
Forced : Нет
Аудио #1
Идентификатор : 2
Формат : AC-3
Формат/Информация : Audio Coding 3
Расширение режима : CM (complete main)
Параметр Endianness формата : Big
Идентификатор кодека : A_AC3
Продолжительность : 1 ч. 33 м.
Вид битрейта : Постоянный
Битрейт : 384 Кбит/сек
Каналы : 6 каналов
Расположение каналов : Front: L C R, Side: L R, LFE
Частота : 48,0 КГц
Битовая глубина : 16 бит
Метод сжатия : С потерями
Размер потока : 257 Мбайт (11%)
Заголовок : А.Матвеев по переводу MartinaG
Язык : Russian
Default : Да
Forced : Нет
Аудио #2
Идентификатор : 3
Формат : AC-3
Формат/Информация : Audio Coding 3
Расширение режима : CM (complete main)
Параметр Endianness формата : Big
Идентификатор кодека : A_AC3
Продолжительность : 1 ч. 33 м.
Вид битрейта : Постоянный
Битрейт : 384 Кбит/сек
Каналы : 6 каналов
Расположение каналов : Front: L C R, Side: L R, LFE
Частота : 44,1 КГц
Битовая глубина : 16 бит
Метод сжатия : С потерями
Размер потока : 257 Мбайт (11%)
Язык : English
Default : Нет
Forced : Нет
Текст #1
Идентификатор : 4
Формат : UTF-8
Идентификатор кодека : S_TEXT/UTF8
Идентификатор кодека/Информация : UTF-8 Plain Text
Заголовок : Перевод MartinaG
Язык : Russian
Default : Нет
Forced : Нет
Текст #2
Идентификатор : 5
Формат : UTF-8
Идентификатор кодека : S_TEXT/UTF8
Идентификатор кодека/Информация : UTF-8 Plain Text
Язык : English
Default : Нет
Forced : Нет
Скриншот c названием фильма Скриншоты
Скачать

Скачать торрент!

Как скачивать? · Что такое торрент? · Рейтинг и ограничения

Сайт не распространяет и не хранит электронные версии произведений, а лишь предоставляет доступ к создаваемому пользователями каталогу ссылок на торрент-файлы, которые содержат только списки хеш-сумм

[Профиль] [ЛС]
Показать сообщения:    
Ответить на тему

Текущее время: Сегодня 22:14

Часовой пояс: GMT + 4



Вы не можете начинать темы
Вы не можете отвечать на сообщения
Вы не можете редактировать свои сообщения
Вы не можете удалять свои сообщения
Вы не можете голосовать в опросах
Вы не можете прикреплять файлы к сообщениям
Вы не можете скачивать файлы