Грань будущего / Edge of Tomorrow (Даг Лайман / Doug Liman) [2014, США, Австралия, фантастика, боевик, BDRip] Dub

Ответить на тему
 
Автор Сообщение

user ®

Стаж: 7 лет 7 месяцев

Сообщений: 20008

Пост Пост: #1 от 17-Ноя-2014 09:45

[Цитировать]

Грань будущего / Edge of Tomorrow
«Живи. Умри. И снова»
- Страна: США, Австралия
Жанр: фантастика, боевик
Год выпуска: 2014
Продолжительность: 01:53:29
Перевод: Профессиональный (дублированный) CEE
Cубтитры: нет
Оригинальная аудиодорожка: нет-Режиссер: Даг Лайман / Doug Liman
Сценарий: Кристофер МакКуорри / Christopher McQuarrie, Джез Баттеруорт / Jez Butterworth
Продюсер: Джейсон Хоффс / Jason Hoffs, Грегори Джейкобс / Gregory Jacobs
Оператор: Дион Биби / Dion Beebe
Композитор: Кристоф Бек / Christophe Beck-В ролях:
Том Круз (Cage), Эмили Блант (Rita), Брендан Глисон (General Brigham), Билл Пэкстон (Master Sergeant Farell), Джонас Армстронг (Skinner), Тони Вэй (Kimmel), Кик Гарри (Griff), Франц Драмех (Ford), Драгомир Мрсич (Kuntz), Шарлотта Райли (Nance).-Бюджет: $178 000 000
Сборы в США: $100 206 256
Сборы в мире: $369 206 256-Мировая премьера: 28 мая 2014
Релиз на DVD: 2 октября 2014, «CP Дистрибуция»
Релиз на Blu-ray: 2 октября 2014, «CP Дистрибуция»
-Описание:
История разворачивается в недалеком будущем, когда похожая на рой раса инопланетян, названных мимиками, совершает безжалостное нападение на Землю, стерев в пыль крупные города и уничтожив миллионы жизней. Армии Земли объединят силы, чтобы вступить в последний бой с полчищами инопланетян, зная, что второго шанса у них не будет.
Подполковник Билл Кейдж — ни разу не был на поле битвы, пока его не бросили в самую гущу боя неподготовленного и плохо снаряженного, фактически обрекая на смерть. Через считанные минуты Кейджа убивают, но он захватывает с собой и жизнь пришельца. И случается невозможное — он просыпается живым в начале того же адского дня, и вынужден сражаться и умирать… снова и снова. Прямой физический контакт с пришельцем замкнул временную петлю, и теперь Кейдж вновь и вновь идет в тот же бой. Но с каждым возвращением Кейдж становится более жестоким и умным в битве с мимиками, сражаясь бок о бок с бойцом спецназа Ритой Вратаски, уничтожившей больше мимиков, чем кто бы то ни было еще на Земле. Рита и Кейдж раз за разом дают бой пришельцам, и каждое повторяющееся сражение приближает их к разгадке того, как убить инопланетных захватчиков и спасти планету.-Рейтинг
kinopoisk.ru: 8.133 (87 502)
imdb.com: 8.00 (204 459)
MPAA: PG-13 - Детям до 13 лет просмотр не желателен-Качество видео: [url=http://***/forum/viewtopic.php?t=4862005]BDRip[/url] | thx: Talian70
Формат видео: AVI ///СОВМЕСТИМО С БЫТОВЫМИ ПЛЕЕРАМИ/// → //SAMPLE//
Видео: 720x304 (2.37:1), 23.976 fps, XviD build 65 ~1452 kbps avg, 0.28 bit/pixel
Аудио: 48.0 kHz, AC3 Dolby Digital, 3/2 (L,C,R,l,r) + LFE ch, ~384.00 kbps avg | DUB
Размер: 1498.30 Mb (1/3 DVD-R)
-MediaInfo
Общее
Полное имя : A:\Фильмы\Edge.of.Tomorrow.2014.BDRip.XviD.1,46Gb.AC3.avi
Формат : AVI
Формат/Информация : Audio Video Interleave
Размер файла : 1,46 Гбайт
Продолжительность : 1 ч. 53 м.
Общий поток : 1846 Кбит/сек
Программа кодирования : VirtualDubMod 1.5.10.3 | www.virtualdub-fr.org || (build 2550/release)
Библиотека кодирования : VirtualDubMod build 2550/release
Видео
Идентификатор : 0
Формат : MPEG-4 Visual
Профиль формата : Advanced Simple@L5
Параметр BVOP формата : 1
Параметр QPel формата : Нет
Параметр GMC формата : Без точки перехода
Параметр матрицы формата : Выборочная
Идентификатор кодека : XVID
Идентификатор кодека/Подсказка : XviD
Продолжительность : 1 ч. 53 м.
Битрейт : 1452 Кбит/сек
Ширина : 720 пикселей
Высота : 304 пикселя
Соотношение сторон : 2,37:1
Частота кадров : 23,976 кадра/сек
Цветовое пространство : YUV
Субдискретизация насыщенности : 4:2:0
Битовая глубина : 8 бит
Тип развёртки : Прогрессивная
Метод сжатия : С потерями
Бит/(Пиксели*Кадры) : 0.277
Размер потока : 1,15 Гбайт (79%)
Библиотека кодирования : XviD 65
Аудио
Идентификатор : 1
Формат : AC-3
Формат/Информация : Audio Coding 3
Расширение режима : CM (complete main)
Параметр Endianness формата : Big
Идентификатор кодека : 2000
Продолжительность : 1 ч. 53 м.
Вид битрейта : Постоянный
Битрейт : 384 Кбит/сек
Каналы : 6 каналов
Расположение каналов : Front: L C R, Side: L R, LFE
Частота : 48,0 КГц
Битовая глубина : 16 бит
Метод сжатия : С потерями
Размер потока : 312 Мбайт (21%)
Выравнивание : Соединение по промежуткам
Продолжительность промежутка : 42 мс. (1,00 видеокадр)
Время предзагрузки промежутка : 512 мс.
Скриншот c названием фильма Comparison
[url=http://***/forum/viewtopic.php?t=4862866]http://***/forum/viewtopic.php?t=4862866[/url]
http://screenshotcomparison.com/comparison/100436/picture:5
http://screenshotcomparison.com/comparison/100437/picture:6
+ звук 192 kbps vs 384 kbps.-Сэмплы:
Мой https://www.sendspace.com/file/3i5wpq
Конкурент https://www.sendspace.com/file/zq77e4
Скриншоты
Скачать

Скачать торрент!

Как скачивать? · Что такое торрент? · Рейтинг и ограничения

Сайт не распространяет и не хранит электронные версии произведений, а лишь предоставляет доступ к создаваемому пользователями каталогу ссылок на торрент-файлы, которые содержат только списки хеш-сумм

[Профиль] [ЛС]
Показать сообщения:    
Ответить на тему

Текущее время: Сегодня 21:24

Часовой пояс: GMT + 4



Вы не можете начинать темы
Вы не можете отвечать на сообщения
Вы не можете редактировать свои сообщения
Вы не можете удалять свои сообщения
Вы не можете голосовать в опросах
Вы не можете прикреплять файлы к сообщениям
Вы не можете скачивать файлы