Таинство / The Sacrament (Тай Уэст / Ti West) [2013, США, ужасы, триллер, BDRemux 1080p] VO (datynet) + Original (Eng) + Subs (Rus, Eng)

Ответить на тему
 
Автор Сообщение

user ®

Стаж: 7 лет 7 месяцев

Сообщений: 20008

Пост Пост: #1 от 16-Ноя-2014 22:55

[Цитировать]

Таинство / The Sacrament Страна: США
Жанр: ужасы, триллер
Год выпуска: 2013
Продолжительность: 01:39:08
Перевод: Одноголосый закадровый Антон Агапов aka datynet
Cубтитры: английские (SDH), русские (tоlmаkоff)
Оригинальная аудиодорожка: английский
Режиссер: Тай Уэст / Ti West
В ролях: Эми Саймец, Джо Сванберг, Кейт Лин Шейл, Эй Джей Боуэн, Джин Джонс, Эндрю Неннингер, Шоун Парсонс, Мэдисон Эбшер, Донна Биско, Conphidance
Описание:
Два журналиста едут к родственнику одного из них, который проживает в отдаленной коммуне, жители которой подчиняются таинственному отцу. Не сложно догадаться, что для героев ничем хорошим эта поездка не закончится…
- || || -Тип релиза: BDRemux 1080p (The.Sacrament.2013.BluRay.1080p.AVC.DTS-HD.MA5.1-CHDBits)

Контейнер: MKV
Видео: AVC (x264), 1920x1080 (16:9) at 23,976 fps, ~17993 Кbps
Аудио 1: AC3; 192 Kbps; CBR; 2 ch; 48 khz | VO - datynet |
Аудио 2: DTS HDMA; ~3582 Kbps; VBR; 6 ch; 48 khz; 24 bit [DTS Core: 5.1 / 48 kHz / 1536 kbps / 24-bit] | Английский |
Аудио 3: AC3; 192 Kbps; CBR; 2 ch; 48 khz | Английский | - Commentary by Ti West & actors: AJ Bowen, Amy Seimetz
Формат субтитров: softsub (SRT)
Скриншоты || x264 Info || MediaInfo || Notes
Notes: Аудио дорожка №1 взята с этой [url=http://***/forum/viewtopic.php?t=4847779]раздачи[/url], thx: CmapbluDpyr
Русские субтитры взяты с этой [url=http://***/forum/viewtopic.php?t=4835896]раздачи[/url], thx: massiveUNKLE
в них были поправлены многие места
MediaInfo
Общее
Уникальный идентификатор                 : 184059224626701210534266806866671256220 (0x8A788468DA4E061EA03CC1E5766B429C)
Полное имя                               : Таинство.2013.L1.1080p.BluRay.Remux.x264.mkv
Формат                                   : Matroska
Версия формата                           : Version 4 / Version 2
Размер файла                             : 15,1 Гбайт
Продолжительность                        : 1 ч. 39 м.
Режим общего битрейта                    : Переменный
Общий поток                              : 21,9 Мбит/сек
Название фильма                          : The Sacrament [2013] [remux] VO
Дата кодирования                         : UTC 2014-11-11 09:59:50
Программа кодирования                    : mkvmerge v7.3.0 ('Nouages') 32bit built on Oct 22 2014 18:44:01
Библиотека кодирования                   : libebml v1.3.0 + libmatroska v1.4.1
Видео
Идентификатор                            : 1
Формат                                   : AVC
Формат/Информация                        : Advanced Video Codec
Профиль формата                          : High@L4.1
Параметр CABAC формата                   : Да
Параметр ReFrames формата                : 4 кадра
Идентификатор кодека                     : V_MPEG4/ISO/AVC
Продолжительность                        : 1 ч. 39 м.
Вид битрейта                             : Переменный
Максимальный битрейт                     : 37,0 Мбит/сек
Ширина                                   : 1920 пикселей
Высота                                   : 1080 пикселей
Соотношение сторон                       : 16:9
Режим частоты кадров                     : Постоянный
Частота кадров                           : 23,976 кадра/сек
Цветовое пространство                    : YUV
Субдискретизация насыщенности            : 4:2:0
Битовая глубина                          : 8 бит
Тип развёртки                            : Прогрессивная
Заголовок                                : MPEG-4 AVC Video / 17993 kbps / 1080p / 23.976 fps / 16:9 / High Profile 4.1 // profile.php?mode=viewprofile&u=22488948
Язык                                     : English
Default                                  : Да
Forced                                   : Нет
Аудио #1
Идентификатор                            : 2
Формат                                   : AC-3
Формат/Информация                        : Audio Coding 3
Расширение режима                        : CM (complete main)
Параметр Endianness формата              : Big
Идентификатор кодека                     : A_AC3
Продолжительность                        : 1 ч. 39 м.
Вид битрейта                             : Постоянный
Битрейт                                  : 192 Кбит/сек
Каналы                                   : 2 канала
Расположение каналов                     : Front: L R
Частота                                  : 48,0 КГц
Битовая глубина                          : 16 бит
Метод сжатия                             : С потерями
Размер потока                            : 136 Мбайт (1%)
Заголовок                                : VO [datynet]
Язык                                     : Russian
Default                                  : Да
Forced                                   : Нет
Аудио #2
Идентификатор                            : 3
Формат                                   : DTS
Формат/Информация                        : Digital Theater Systems
Профиль формата                          : MA / Core
Режим                                    : 16
Параметр Endianness формата              : Big
Идентификатор кодека                     : A_DTS
Продолжительность                        : 1 ч. 39 м.
Вид битрейта                             : Переменный
Битрейт                                  : Неизвестно / 1509 Кбит/сек
Каналы                                   : 6 каналов
Расположение каналов                     : Front: L C R, Side: L R, LFE
Частота                                  : 48,0 КГц
Битовая глубина                          : 24 бит
Метод сжатия                             : Без потерь / Lossy
Заголовок                                : 5.1 / 48 kHz / 3582 kbps / 24-bit (DTS Core: 5.1 / 48 kHz / 1509 kbps / 24-bit)
Язык                                     : English
Default                                  : Нет
Forced                                   : Нет
Аудио #3
Идентификатор                            : 4
Формат                                   : AC-3
Формат/Информация                        : Audio Coding 3
Расширение режима                        : CM (complete main)
Параметр Endianness формата              : Big
Идентификатор кодека                     : A_AC3
Продолжительность                        : 1 ч. 39 м.
Вид битрейта                             : Постоянный
Битрейт                                  : 192 Кбит/сек
Каналы                                   : 2 канала
Расположение каналов                     : Front: L R
Частота                                  : 48,0 КГц
Битовая глубина                          : 16 бит
Метод сжатия                             : С потерями
Размер потока                            : 136 Мбайт (1%)
Заголовок                                : Commentary by Ti West & actors: AJ Bowen, Amy Seimetz
Язык                                     : English
Default                                  : Нет
Forced                                   : Нет
Текст #1
Идентификатор                            : 5
Формат                                   : UTF-8
Идентификатор кодека                     : S_TEXT/UTF8
Идентификатор кодека/Информация          : UTF-8 Plain Text
Заголовок                                : [tоlmаkоff]
Язык                                     : Russian
Default                                  : Нет
Forced                                   : Нет
Текст #2
Идентификатор                            : 6
Формат                                   : UTF-8
Идентификатор кодека                     : S_TEXT/UTF8
Идентификатор кодека/Информация          : UTF-8 Plain Text
Язык                                     : English
Default                                  : Нет
Forced                                   : Нет
Меню
00:00:00.000                             : en:
00:05:00.300                             : en:
00:09:31.445                             : en:
00:15:11.702                             : en:
00:19:42.514                             : en:
00:24:58.705                             : en:
00:30:14.479                             : en:
00:36:28.728                             : en:
00:42:16.492                             : en:
00:47:49.241                             : en:
00:57:32.448                             : en:
01:02:49.140                             : en:
01:08:27.895                             : en:
01:17:34.900                             : en:
01:20:50.929                             : en:
01:26:48.244                             : en:
Скачать

Скачать торрент!

Как скачивать? · Что такое торрент? · Рейтинг и ограничения

Сайт не распространяет и не хранит электронные версии произведений, а лишь предоставляет доступ к создаваемому пользователями каталогу ссылок на торрент-файлы, которые содержат только списки хеш-сумм

[Профиль] [ЛС]
Показать сообщения:    
Ответить на тему

Текущее время: Сегодня 20:35

Часовой пояс: GMT + 4



Вы не можете начинать темы
Вы не можете отвечать на сообщения
Вы не можете редактировать свои сообщения
Вы не можете удалять свои сообщения
Вы не можете голосовать в опросах
Вы не можете прикреплять файлы к сообщениям
Вы не можете скачивать файлы