Рождественский роман / Love\'s Christmas Journey (Дэвид С. Касс ст. / David S. Cass Sr.) [2011, США, Великобритания, драма, мелодрама, HDTV 1080i] MVO

Ответить на тему
 
Автор Сообщение

user ®

Стаж: 7 лет 7 месяцев

Сообщений: 20008

Пост Пост: #1 от 16-Ноя-2014 22:55

[Цитировать]

Рождественский роман / Love's Christmas Journey (1.2 серия) Страна: США, Великобритания
Жанр: драма, мелодрама
Год выпуска: 2011
Продолжительность: 01:22:56 + 01:22:04
Перевод: Профессиональный (многоголосый закадровый)
Cубтитры: нет
Режиссер: Дэвид С. Касс ст. / David S. Cass Sr.
В ролях: Натали Холл, ДжоБет Уильямс, Грег Вон, Дилан Брюс, Бобби Кампо, Чарльз Шонесси, Шон Эстин, Райан Ванот, Джада Фейсер, Эрнест Боргнайн
Описание: Недавно овдовевшая Элли Кинг скорбит о потерянных муже и дочери. Элли решила навестить на Рождество своего брата Аарона Дэвиса, который является шерифом в небольшом городке Хеддентон. У Аарона двое детей и Элли заботится о них, читает им интересные истории. Она делает все возможное, чтобы насладиться праздником, находит новых друзей, среди которых продавщица магазина миссис Томсон и очаровательный поклонник Элли — помощник шерифа Майкл Строуд. Когда одного юношу ложно обвиняют в поджоге сарая мэра, Элли помогает доказать его невиновность. Когда Аарон уезжает, чтобы купить землю, Элли соглашается присмотреть за его детьми. Но вот Аарон пропадает без вести.
Доп. информация:
http://www.kinopoisk.ru/film/634250/

Сэмпл: http://rusfolder.com/42243962
Тип релиза: HDTV 1080i
Контейнер: TS
Видео: AVC/H.264, PAL, 1920х1080 (16:9), 25 fps, 8603 (8601) Kbps
Аудио: русский, MP-2, 48000 Hz, 192 Кбит/сек, 2 ch
MediaInfo
1 серия
Общее
Идентификатор : 1 (0x1)
Полное имя : D:\Рождественский роман (1,2 серия)\Рождественский роман (1 серия).ts
Формат : MPEG-TS
Размер файла : 5,36 Гбайт
Продолжительность : 1 ч. 22 м.
Режим общего битрейта : Переменный
Общий поток : 9254 Кбит/сек
Максимальный общий битрейт : 35,5 Мбит/сек
Видео
Идентификатор : 4113 (0x1011)
Идентификатор меню : 1 (0x1)
Формат : AVC
Формат/Информация : Advanced Video Codec
Профиль формата : Main@L4.0
Параметр CABAC формата : Да
Параметр ReFrames формата : 3 кадра
Идентификатор кодека : 27
Продолжительность : 1 ч. 22 м.
Вид битрейта : Переменный
Битрейт : 8603 Кбит/сек
Максимальный битрейт : 40,0 Мбит/сек
Ширина : 1920 пикселей
Высота : 1080 пикселей
Соотношение сторон : 16:9
Частота кадров : 25,000 кадров/сек
Стандарт вещания : Component
Цветовое пространство : YUV
Субдискретизация насыщенности : 4:2:0
Битовая глубина : 8 бит
Тип развёртки : Чересстрочная
Порядок развёртки : Верхнее поле первое
Бит/(Пиксели*Кадры) : 0.166
Размер потока : 4,98 Гбайт (93%)
Аудио
Идентификатор : 4352 (0x1100)
Идентификатор меню : 1 (0x1)
Формат : MPEG Audio
Версия формата : Version 1
Профиль формата : Layer 2
Идентификатор кодека : 4
Продолжительность : 1 ч. 22 м.
Вид битрейта : Постоянный
Битрейт : 192 Кбит/сек
Каналы : 2 канала
Частота : 48,0 КГц
Метод сжатия : С потерями
Размер потока : 114 Мбайт (2%)
Язык : Russian
2 серия
Общее
Идентификатор : 1 (0x1)
Полное имя : D:\Рождественский роман (1,2 серия)\Рождественский роман (2 серия).ts
Формат : MPEG-TS
Размер файла : 5,30 Гбайт
Продолжительность : 1 ч. 22 м.
Режим общего битрейта : Переменный
Общий поток : 9252 Кбит/сек
Максимальный общий битрейт : 35,5 Мбит/сек
Видео
Идентификатор : 4113 (0x1011)
Идентификатор меню : 1 (0x1)
Формат : AVC
Формат/Информация : Advanced Video Codec
Профиль формата : Main@L4.0
Параметр CABAC формата : Да
Параметр ReFrames формата : 3 кадра
Идентификатор кодека : 27
Продолжительность : 1 ч. 22 м.
Вид битрейта : Переменный
Битрейт : 8601 Кбит/сек
Максимальный битрейт : 40,0 Мбит/сек
Ширина : 1920 пикселей
Высота : 1080 пикселей
Соотношение сторон : 16:9
Частота кадров : 25,000 кадров/сек
Стандарт вещания : Component
Цветовое пространство : YUV
Субдискретизация насыщенности : 4:2:0
Битовая глубина : 8 бит
Тип развёртки : Чересстрочная
Порядок развёртки : Верхнее поле первое
Бит/(Пиксели*Кадры) : 0.166
Размер потока : 4,93 Гбайт (93%)
Аудио
Идентификатор : 4352 (0x1100)
Идентификатор меню : 1 (0x1)
Формат : MPEG Audio
Версия формата : Version 1
Профиль формата : Layer 2
Идентификатор кодека : 4
Продолжительность : 1 ч. 22 м.
Вид битрейта : Постоянный
Битрейт : 192 Кбит/сек
Каналы : 2 канала
Частота : 48,0 КГц
Метод сжатия : С потерями
Размер потока : 113 Мбайт (2%)
Язык : Russian
Скриншот c названием фильма Скриншоты
Скачать

Скачать торрент!

Как скачивать? · Что такое торрент? · Рейтинг и ограничения

Сайт не распространяет и не хранит электронные версии произведений, а лишь предоставляет доступ к создаваемому пользователями каталогу ссылок на торрент-файлы, которые содержат только списки хеш-сумм

[Профиль] [ЛС]
Показать сообщения:    
Ответить на тему

Текущее время: Сегодня 16:30

Часовой пояс: GMT + 4



Вы не можете начинать темы
Вы не можете отвечать на сообщения
Вы не можете редактировать свои сообщения
Вы не можете удалять свои сообщения
Вы не можете голосовать в опросах
Вы не можете прикреплять файлы к сообщениям
Вы не можете скачивать файлы