Человек ноября / The November Man (Роджер Дональдсон / Roger Donaldson) [2014, США, триллер, BDRip 1080p] Dub (iTunes) + Sub Eng + Original Eng

Ответить на тему
 
Автор Сообщение

user ®

Стаж: 7 лет 7 месяцев

Сообщений: 20008

Пост Пост: #1 от 16-Ноя-2014 22:55

[Цитировать]

Человек ноября / The November Man
Страна: США
Жанр: триллер
Год выпуска: 2014
Продолжительность: 01:48:17
Перевод: Профессиональный (дублированный) iTunes
Cубтитры: английские
Оригинальная аудиодорожка: английский
Режиссер: Роджер Дональдсон / Roger Donaldson
В ролях: Пирс Броснан, Люк Брейси, Ольга Куриленко, Билл Смитрович, Амила Терзимехик, Лазар Ристовски, Медиха Муслиович, Элайза Тейлор, Катерина Скорсоне, Аки Котабе
Описание: Экс-агент ЦРУ, невольно вернувшись в дело, оказывается в эпицентре международной интриги, затеянной главами разведывательного управления. В их планах — внедрение во внутреннюю политику стран Восточной Европы через кандидата в президенты РФ с помощью шантажа грязным прошлым. На его совести — вторая вспышка войны на Северном Кавказе, жертвы, насилие. Но Питер Дэверо разгадывает тайны нечестной игры…

Тип релиза: BDRip 1080p
Контейнер: MKV
Видео: MPEG-4 AVC, 14,7 Мбит/с, 1920x804, 23,976 fps
Аудио: Rus, AC3, 384 kb/s (6 ch), 48 kHz
Аудио 2: Eng, DTS, 1510 kb/s (6 ch), 48 kHz
Формат субтитров: softsub (SRT)
MediaInfo
Format : Matroska
Format version : Version 4 / Version 2
File size : 12.8 GiB
Duration : 1h 48mn
Overall bit rate : 16.9 Mbps
Encoded date : UTC 2014-11-12 08:33:03
Writing application : mkvmerge v7.1.0 ('Good Love') 64bit built on Jul 27 2014 13:06:55
Writing library : libebml v1.3.0 + libmatroska v1.4.1
_STATISTICS_WRITING_APP : mkvmerge v7.1.0 ('Good Love') 64bit built on Jul 27 2014 13:06:55
_STATISTICS_WRITING_DATE_UTC : 2014-11-12 08:33:03
_STATISTICS_TAGS : BPS DURATION NUMBER_OF_FRAMES NUMBER_OF_BYTES
DURATION : 01:48:21.440000000
NUMBER_OF_FRAMES : 203170
NUMBER_OF_BYTES : 312069120
Video
ID : 1
Format : AVC
Format/Info : Advanced Video Codec
Format profile : High@L4.1
Format settings, CABAC : Yes
Format settings, ReFrames : 5 frames
Codec ID : V_MPEG4/ISO/AVC
Duration : 1h 48mn
Bit rate : 14.7 Mbps
Width : 1 920 pixels
Height : 804 pixels
Display aspect ratio : 2.40:1
Frame rate mode : Constant
Frame rate : 23.976 fps
Color space : YUV
Chroma subsampling : 4:2:0
Bit depth : 8 bits
Scan type : Progressive
Bits/(Pixel*Frame) : 0.397
Stream size : 11.1 GiB (87%)
Writing library : x264 core 142 r2479kMod dd79a61
Encoding settings : cabac=1 / ref=5 / deblock=1:-3:-3 / analyse=0x3:0x133 / me=umh / subme=11 / psy=1 / fade_compensate=0.00 / psy_rd=0.95:0.00 / mixed_ref=1 / me_range=48 / chroma_me=1 / trellis=2 / 8x8dct=1 / cqm=0 / deadzone=21,11 / fast_pskip=0 / chroma_qp_offset=-2 / threads=18 / lookahead_threads=3 / sliced_threads=0 / nr=0 / decimate=1 / interlaced=0 / bluray_compat=0 / constrained_intra=0 / fgo=0 / bframes=8 / b_pyramid=2 / b_adapt=2 / b_bias=0 / direct=3 / weightb=1 / open_gop=0 / weightp=2 / keyint=230 / keyint_min=23 / scenecut=40 / intra_refresh=0 / rc_lookahead=40 / rc=crf / mbtree=0 / crf=18.0000 / qcomp=0.70 / qpmin=0 / qpmax=69 / qpstep=4 / vbv_maxrate=50000 / vbv_bufsize=62500 / crf_max=0.0 / nal_hrd=none / filler=0 / ip_ratio=1.20 / pb_ratio=1.10 / aq=1:0.74
Language : English
Default : Yes
Forced : No
Matrix coefficients : BT.709
_STATISTICS_WRITING_APP : mkvmerge v7.1.0 ('Good Love') 64bit built on Jul 27 2014 13:06:55
_STATISTICS_WRITING_DATE_UTC : 2014-11-12 08:33:03
_STATISTICS_TAGS : BPS DURATION NUMBER_OF_FRAMES NUMBER_OF_BYTES
DURATION : 01:48:21.495000000
NUMBER_OF_FRAMES : 155880
NUMBER_OF_BYTES : 12202533441
Audio #1
ID : 2
Format : AC-3
Format/Info : Audio Coding 3
Mode extension : CM (complete main)
Format settings, Endianness : Big
Codec ID : A_AC3
Duration : 1h 48mn
Bit rate mode : Constant
Bit rate : 384 Kbps
Channel(s) : 6 channels
Channel positions : Front: L C R, Side: L R, LFE
Sampling rate : 48.0 KHz
Bit depth : 16 bits
Compression mode : Lossy
Stream size : 298 MiB (2%)
Title : iTunes
Language : Russian
Default : Yes
Forced : No
Audio #2
ID : 3
Format : DTS
Format/Info : Digital Theater Systems
Mode : 16
Format settings, Endianness : Big
Codec ID : A_DTS
Duration : 1h 48mn
Bit rate mode : Constant
Bit rate : 1 509 Kbps
Channel(s) : 6 channels
Channel positions : Front: L C R, Side: L R, LFE
Sampling rate : 48.0 KHz
Bit depth : 24 bits
Compression mode : Lossy
Stream size : 1.14 GiB (9%)
Language : English
Default : No
Forced : No
Text #1
ID : 4
Format : UTF-8
Codec ID : S_TEXT/UTF8
Codec ID/Info : UTF-8 Plain Text
Title : SDH
Language : English
Default : No
Forced : No
Text #2
ID : 5
Format : UTF-8
Codec ID : S_TEXT/UTF8
Codec ID/Info : UTF-8 Plain Text
Language : English
Default : No
Forced : No
Menu
00:00:00.000 : en:00:00:00.000
00:05:37.170 : en:00:05:37.170
00:08:16.329 : en:00:08:16.329
00:11:00.159 : en:00:11:00.159
00:16:43.461 : en:00:16:43.461
00:20:16.006 : en:00:20:16.006
00:23:32.620 : en:00:23:32.620
00:25:50.716 : en:00:25:50.716
00:30:24.364 : en:00:30:24.364
00:35:07.397 : en:00:35:07.397
00:38:43.988 : en:00:38:43.988
00:44:36.757 : en:00:44:36.757
00:49:26.213 : en:00:49:26.213
00:52:29.646 : en:00:52:29.646
00:55:58.522 : en:00:55:58.522
01:01:46.870 : en:01:01:46.870
01:06:25.023 : en:01:06:25.023
01:10:51.038 : en:01:10:51.038
01:15:18.055 : en:01:15:18.055
01:20:56.643 : en:01:20:56.643
01:25:19.823 : en:01:25:19.823
01:30:13.783 : en:01:30:13.783
01:34:57.942 : en:01:34:57.942
01:42:54.418 : en:01:42:54.418
Скриншоты
Скачать

Скачать торрент!

Как скачивать? · Что такое торрент? · Рейтинг и ограничения

Сайт не распространяет и не хранит электронные версии произведений, а лишь предоставляет доступ к создаваемому пользователями каталогу ссылок на торрент-файлы, которые содержат только списки хеш-сумм

[Профиль] [ЛС]
Показать сообщения:    
Ответить на тему

Текущее время: Сегодня 04:46

Часовой пояс: GMT + 4



Вы не можете начинать темы
Вы не можете отвечать на сообщения
Вы не можете редактировать свои сообщения
Вы не можете удалять свои сообщения
Вы не можете голосовать в опросах
Вы не можете прикреплять файлы к сообщениям
Вы не можете скачивать файлы