Путь ноги и кулака / The Foot Fist Way (Джоди Хилл / Jody Hill) [2006, США, комедия, WEB-DL 720p] MVO (Paramount channel) + DVO (НТВ+) + Sub Rus, Eng + Original Eng

Ответить на тему
 
Автор Сообщение

user ®

Стаж: 7 лет 7 месяцев

Сообщений: 20008

Пост Пост: #1 от 16-Ноя-2014 22:55

[Цитировать]

Путь ноги и кулака / The Foot Fist Way
Страна: США
Студия: MTV Films, Gary Sanchez Productions, You Know I Can't Kiss You
Жанр: комедия
Год выпуска: 2006
Продолжительность: 01:22:56
Перевод 1: Профессиональный (многоголосый закадровый) Paramount channel
Перевод 2: Профессиональный (двухголосый закадровый) НТВ+
Cубтитры: русские, английские
Оригинальная аудиодорожка: английский
Режиссер: Джоди Хилл / Jody Hill
В ролях: Денни Р. МакБрайд, Бен Бест, Мэри Джейн Бостик, Кен Агиляр, Тайлер Баумм, Шон Бакстер, Брюс Камерон
Описание: "Путь ноги и кулака" - так переводится с корейского название одного из видов восточных единоборств - таэквондо. У себя в маленьком городке Фред Симмонс слывет настоящим мастером этого боевого искусства. Но когда выплывает наружу факт, что его обожаемая жена изменяет ему, в глазах окружающих из крутого парня он превращается в посмешище. Не в силах вытерпеть муки оскорбленного самолюбия, Фред покидает городок и пускается в паломничество с целью найти своего кумира - короля таэквондо Чака "Трака" Уоллеса...
II Сэмпл II IMDB II
Доп. информация:
За исходник спасибо Sunny, к нему добавлена дорога, записанная с т/к Paramount channel и перевод НТВ+, за который спасибо KovinAlex, а также английские субтитры
Тип релиза: WEB-DL 720p
Контейнер: MKV
Видео: AVC / 1280x720 / 16:9 / 23.976fps / Bit rate 4010Kbps / High@L3.1
Аудио 1: AC3 / 48.0 KHz / 2ch. / 192kbps / rus / mvo / Paramount channel
Аудио 2: AC3 / 48.0 KHz / 2ch. / 192kbps / rus / dvo / НТВ+
Аудио 3: AC3 / 48.0 KHz / 6ch. / 384kbps / eng
Формат субтитров: softsub (SRT)
MediaInfo
Общее
Уникальный идентификатор : 249036785067244753897551764628589972363 (0xBB5ABD7B394035FC9F39833764BF0B8B)
Полное имя : E:\torrent\The.Foot.Fist.Way.2006.WEB-DL.720p.Sub.Rus.Eng.mkv
Формат : Matroska
Версия формата : Version 4 / Version 2
Размер файла : 2,82 Гбайт
Продолжительность : 1 ч. 22 м.
Общий поток : 4875 Кбит/сек
Дата кодирования : UTC 2014-11-14 06:14:02
Программа кодирования : mkvmerge v7.2.0 ('On Every Street') 64bit built on Sep 13 2014 15:52:10
Библиотека кодирования : libebml v1.3.0 + libmatroska v1.4.1
_STATISTICS_WRITING_APP : mkvmerge v7.2.0 ('On Every Street') 64bit built on Sep 13 2014 15:52:10
_STATISTICS_WRITING_DATE_UTC : 2014-11-14 06:14:02
_STATISTICS_TAGS : BPS DURATION NUMBER_OF_FRAMES NUMBER_OF_BYTES
DURATION : 01:21:46.333000000
NUMBER_OF_FRAMES : 1135
NUMBER_OF_BYTES : 45685
Видео
Идентификатор : 1
Формат : AVC
Формат/Информация : Advanced Video Codec
Профиль формата : High@L3.1
Параметр CABAC формата : Нет
Параметр ReFrames формата : 2 кадра
Идентификатор кодека : V_MPEG4/ISO/AVC
Продолжительность : 1 ч. 22 м.
Битрейт : 4010 Кбит/сек
Ширина : 1280 пикселей
Высота : 720 пикселей
Соотношение сторон : 16:9
Режим частоты кадров : Постоянный
Частота кадров : 23,976 кадра/сек
Цветовое пространство : YUV
Субдискретизация насыщенности : 4:2:0
Битовая глубина : 8 бит
Тип развёртки : Прогрессивная
Бит/(Пиксели*Кадры) : 0.181
Размер потока : 2,32 Гбайт (82%)
Заголовок : The.Foot.Fist.Way.2006.WEB-DL.720p.Sub.Rus.Eng
Язык : English
Default : Да
Forced : Нет
Основные цвета : BT.709
Характеристики трансфера : BT.709
Коэффициенты матрицы : BT.709
colour_range : Limited
Аудио #1
Идентификатор : 2
Формат : AC-3
Формат/Информация : Audio Coding 3
Расширение режима : CM (complete main)
Параметр Endianness формата : Big
Идентификатор кодека : A_AC3
Продолжительность : 1 ч. 22 м.
Вид битрейта : Постоянный
Битрейт : 192 Кбит/сек
Каналы : 2 канала
Расположение каналов : Front: L R
Частота : 48,0 КГц
Битовая глубина : 16 бит
Метод сжатия : С потерями
Размер потока : 114 Мбайт (4%)
Заголовок : rus / mvo /Paramound channel / AC3 / 48Khz / 2ch / 192Kbps
Язык : Russian
Default : Да
Forced : Нет
Аудио #2
Идентификатор : 3
Формат : AC-3
Формат/Информация : Audio Coding 3
Расширение режима : CM (complete main)
Параметр Endianness формата : Big
Идентификатор кодека : A_AC3
Продолжительность : 1 ч. 22 м.
Вид битрейта : Постоянный
Битрейт : 192 Кбит/сек
Каналы : 2 канала
Расположение каналов : Front: L R
Частота : 48,0 КГц
Битовая глубина : 16 бит
Метод сжатия : С потерями
Размер потока : 114 Мбайт (4%)
Заголовок : rus / dvo /NTV+ / AC3 / 48Khz / 2ch / 192Kbps
Язык : Russian
Default : Нет
Forced : Нет
Аудио #3
Идентификатор : 4
Формат : AC-3
Формат/Информация : Audio Coding 3
Расширение режима : CM (complete main)
Параметр Endianness формата : Big
Идентификатор кодека : A_AC3
Продолжительность : 1 ч. 22 м.
Вид битрейта : Постоянный
Битрейт : 384 Кбит/сек
Каналы : 6 каналов
Расположение каналов : Front: L C R, Side: L R, LFE
Частота : 48,0 КГц
Битовая глубина : 16 бит
Метод сжатия : С потерями
Размер потока : 228 Мбайт (8%)
Заголовок : eng / AC3 / 48Khz / 6ch / 384Kbps
Язык : English
Default : Нет
Forced : Нет
Текст #1
Идентификатор : 5
Формат : UTF-8
Идентификатор кодека : S_TEXT/UTF8
Идентификатор кодека/Информация : UTF-8 Plain Text
Заголовок : subtitle rus
Язык : Russian
Default : Нет
Forced : Нет
Текст #2
Идентификатор : 6
Формат : UTF-8
Идентификатор кодека : S_TEXT/UTF8
Идентификатор кодека/Информация : UTF-8 Plain Text
Заголовок : subtitle eng
Язык : English
Default : Нет
Forced : Нет
Меню
00:00:00.000 : en:Chapter 1
00:04:21.000 : en:Chapter 2
00:08:31.000 : en:Chapter 3
00:15:14.000 : en:Chapter 4
00:17:20.000 : en:Chapter 5
00:20:45.000 : en:Chapter 6
00:26:35.000 : en:Chapter 7
00:33:15.000 : en:Chapter 8
00:38:10.000 : en:Chapter 9
00:41:58.000 : en:Chapter 10
00:45:45.000 : en:Chapter 11
00:52:46.000 : en:Chapter 12
00:57:47.000 : en:Chapter 13
01:04:30.000 : en:Chapter 14
01:07:45.000 : en:Chapter 15
01:16:26.000 : en:Chapter 16
Скриншот с названием фильма Скриншоты
Скачать

Скачать торрент!

Как скачивать? · Что такое торрент? · Рейтинг и ограничения

Сайт не распространяет и не хранит электронные версии произведений, а лишь предоставляет доступ к создаваемому пользователями каталогу ссылок на торрент-файлы, которые содержат только списки хеш-сумм

[Профиль] [ЛС]
Показать сообщения:    
Ответить на тему

Текущее время: Сегодня 20:09

Часовой пояс: GMT + 4



Вы не можете начинать темы
Вы не можете отвечать на сообщения
Вы не можете редактировать свои сообщения
Вы не можете удалять свои сообщения
Вы не можете голосовать в опросах
Вы не можете прикреплять файлы к сообщениям
Вы не можете скачивать файлы