Трансформеры: Эпоха истребления / Transformers: Age of Extinction (Майкл Бэй / Michael Bay) [2014, США, Китай, фантастика, боевик, приключения, BDRip-AVC] [IMAX] Dub (Blu-Ray CEE) + Original (Eng) + Subs

Ответить на тему
 
Автор Сообщение

user ®

Стаж: 7 лет 7 месяцев

Сообщений: 20008

Пост Пост: #1 от 16-Ноя-2014 22:55

[Цитировать]

Трансформеры: Эпоха истребления / Transformers: Age of Extinction
«Сражаться вместе... Или погибнуть вместе»
- Страна: США, Китай | Di Bonaventura Pictures, Hasbro Inc., Ian Bryce Productions, Paramount Pictures, Tom DeSanto/Don Murphy Production
Жанр: фантастика, боевик, приключения
Год выпуска: 2014
Продолжительность: 02:45:07 час.
Перевод: Профессиональный (полное дублирование) - Blu-Ray CEE
Субтитры: Русские (iTunes, Forced), Украинские (Blu-Ray CEE), Английские (Blu-Ray CEE, SDH, SDH COLORED)
Оригинальная аудиодорожка: Английская
Навигация по главам: Присутствует (22 главы)
Режиссер: Майкл Бэй / Michael Bay
В ролях: Марк Уолберг, Никола Пельтц, Джек Рейнор, Стэнли Туччи, Келси Грэммер, Титус Уэлливер, ТиДжей Миллер, Ли Бинбин, София Майлс, Питер Каллен
Описание: Автоботы и десептиконы оставили человечество собирать планету по кусочкам. Между тем группа могущественных бизнесменов и гениальных ученых пытается извлечь уроки из ошибок прошлого и улучшить технологии до такой степени, чтобы выйти за пределы контролируемого ранее. В это время другая группа — древних мощных трансформеров — берет Землю под прицел.

Качество: BDRip-AVC [IMAX] => Сэмпл | исх. Трансформеры: Эпоха истребления / Transformers: Age of Extinction (2014) [IMAX Edition] 1080p [2D/3D] BD-Remux - HDCLUB
Формат видео: MKV
Видео: 1028x544p (1.890:1), 23,976 fps, H.264 ~4 429 kbps avg, 0.323 bit/pixel
Аудио #1: 48 kHz, AC3, 3/2 (L,C,R,l,r) + LFE ch, ~448.00 kbps avg | Профессиональный (полное дублирование) - Blu-Ray CEE
Аудио #2: 48 kHz, AC3, 3/2 (L,C,R,l,r) + LFE ch, ~448.00 kbps avg | Оригинал (английский)
Формат субтитров: softsub (SRT)
MediaInfo | log x264
log x264
raw [info]: 1028x544p 1:1 @ 24000/1001 fps (cfr)
x264 [info]: using SAR=1/1
x264 [info]: using cpu capabilities: MMX2 SSE2Fast SSSE3 SSE4.2 AVX
x264 [info]: profile High, level 4.0
x264 [info]: cabac=1 ref=14 deblock=1:-2:-1 analyse=0x3:0x133 me=umh subme=11 psy=1 fade_compensate=0.00 psy_rd=1.15:0.10 mixed_ref=1 me_range=32 chroma_me=1 trellis=2 8x8dct=1 cqm=0 deadzone=21,11 fast_pskip=0 chroma_qp_offset=-3 threads=6 lookahead_threads=1 sliced_threads=0 nr=0 decimate=1 interlaced=0 bluray_compat=0 constrained_intra=0 fgo=0 bframes=13 b_pyramid=2 b_adapt=2 b_bias=0 direct=1 weightb=1 open_gop=0 weightp=2 keyint=250 keyint_min=23 scenecut=40 intra_refresh=0 rc_lookahead=40 rc=crf mbtree=0 crf=19.6000 qcomp=0.70 qpmin=0 qpmax=69 qpstep=4 vbv_maxrate=20000 vbv_bufsize=25000 crf_max=0.0 nal_hrd=none filler=0 ip_ratio=1.20 pb_ratio=1.20 aq=3:0.95
x264 [info]: frame I:1902 Avg QP:19.34 size: 73578
x264 [info]: frame P:59940 Avg QP:21.02 size: 37389
x264 [info]: frame B:175695 Avg QP:22.24 size: 17669
x264 [info]: consecutive B-frames: 2.9% 3.9% 12.7% 40.2% 16.1% 16.5% 2.7% 3.1% 0.5% 0.3% 0.2% 0.2% 0.4% 0.4%
x264 [info]: mb I I16..4: 13.7% 58.9% 27.4%
x264 [info]: mb P I16..4: 1.6% 19.7% 5.1% P16..4: 22.8% 26.1% 10.5% 2.6% 0.3% skip:11.4%
x264 [info]: mb B I16..4: 0.4% 4.5% 1.1% B16..8: 31.0% 21.7% 4.5% direct: 8.0% skip:28.8% L0:38.7% L1:41.4% BI:20.0%
x264 [info]: 8x8 transform intra:73.6% inter:57.0%
x264 [info]: coded y,uvDC,uvAC intra: 85.3% 91.2% 73.5% inter: 33.3% 35.5% 13.1%
x264 [info]: i16 v,h,dc,p: 25% 27% 8% 41%
x264 [info]: i8 v,h,dc,ddl,ddr,vr,hd,vl,hu: 8% 10% 8% 9% 13% 12% 14% 11% 15%
x264 [info]: i4 v,h,dc,ddl,ddr,vr,hd,vl,hu: 8% 19% 6% 7% 13% 11% 13% 9% 13%
x264 [info]: i8c dc,h,v,p: 40% 24% 15% 20%
x264 [info]: Weighted P-Frames: Y:7.1% UV:4.8%
x264 [info]: ref P L0: 47.6% 15.9% 16.1% 5.3% 4.0% 2.6% 2.3% 1.2% 1.2% 0.9% 0.8% 0.7% 0.6% 0.6% 0.1% 0.0%
x264 [info]: ref B L0: 78.3% 9.5% 4.3% 2.4% 1.5% 1.2% 0.8% 0.6% 0.4% 0.4% 0.3% 0.2% 0.1%
x264 [info]: ref B L1: 94.6% 5.4%
x264 [info]: kb/s:4429.45
encoded 237537 frames, 3.45 fps, 4429.45 kb/s
General
Unique ID : 191538229062637533342673765940881320314 (0x9018EBCC345AA48388E56010DFB4E97A)
Complete name : Transformers.Age.Of.Extinction.BDRip-AVC.IMAX.Rus.Eng.Subs.by.zOJIOtOi.mkv
Format : Matroska
Format version : Version 4 / Version 2
File size : 6.15 GiB
Duration : 2h 45mn
Overall bit rate : 5 329 Kbps
Encoded date : UTC 2014-11-16 10:02:21
Writing application : mkvmerge v7.0.0 ('Where We Going') 64bit built on Jun 9 2014 15:16:27
Writing library : libebml v1.3.0 + libmatroska v1.4.1
DURATION : 02:42:30.157000000
NUMBER_OF_FRAMES : 2194
NUMBER_OF_BYTES : 117650
_STATISTICS_WRITING_APP : mkvmerge v7.0.0 ('Where We Going') 64bit built on Jun 9 2014 15:16:27
_STATISTICS_WRITING_DATE_UTC : 2014-11-16 10:02:21
_STATISTICS_TAGS : BPS DURATION NUMBER_OF_FRAMES NUMBER_OF_BYTES
Attachment : Yes
Video
ID : 1
Format : AVC
Format/Info : Advanced Video Codec
Format profile : High@L4.0
Format settings, CABAC : Yes
Format settings, ReFrames : 14 frames
Codec ID : V_MPEG4/ISO/AVC
Duration : 2h 45mn
Bit rate : 4 327 Kbps
Width : 1 028 pixels
Height : 544 pixels
Display aspect ratio : 1.890
Frame rate mode : Constant
Frame rate : 23.976 fps
Color space : YUV
Chroma subsampling : 4:2:0
Bit depth : 8 bits
Scan type : Progressive
Bits/(Pixel*Frame) : 0.323
Stream size : 4.99 GiB (81%)
Title : Transformers:Age.Of.Extinction.BDRip-AVC.IMAX.by.zOJIOtOi
Writing library : x264 core 142 r2453kMod ea0ca51
Encoding settings : cabac=1 / ref=14 / deblock=1:-2:-1 / analyse=0x3:0x133 / me=umh / subme=11 / psy=1 / fade_compensate=0.00 / psy_rd=1.15:0.10 / mixed_ref=1 / me_range=32 / chroma_me=1 / trellis=2 / 8x8dct=1 / cqm=0 / deadzone=21,11 / fast_pskip=0 / chroma_qp_offset=-3 / threads=6 / lookahead_threads=1 / sliced_threads=0 / nr=0 / decimate=1 / interlaced=0 / bluray_compat=0 / constrained_intra=0 / fgo=0 / bframes=13 / b_pyramid=2 / b_adapt=2 / b_bias=0 / direct=1 / weightb=1 / open_gop=0 / weightp=2 / keyint=250 / keyint_min=23 / scenecut=40 / intra_refresh=0 / rc_lookahead=40 / rc=crf / mbtree=0 / crf=19.6000 / qcomp=0.70 / qpmin=0 / qpmax=69 / qpstep=4 / vbv_maxrate=20000 / vbv_bufsize=25000 / crf_max=0.0 / nal_hrd=none / filler=0 / ip_ratio=1.20 / pb_ratio=1.20 / aq=3:0.95
Language : English
Default : Yes
Forced : No
DURATION : 02:45:07.273000000
NUMBER_OF_FRAMES : 237537
NUMBER_OF_BYTES : 5485469654
_STATISTICS_WRITING_APP : mkvmerge v7.0.0 ('Where We Going') 64bit built on Jun 9 2014 15:16:27
_STATISTICS_WRITING_DATE_UTC : 2014-11-16 10:02:21
_STATISTICS_TAGS : BPS DURATION NUMBER_OF_FRAMES NUMBER_OF_BYTES
Color primaries : BT.709
Transfer characteristics : BT.709
Matrix coefficients : BT.709
Audio #1
ID : 2
Format : AC-3
Format/Info : Audio Coding 3
Mode extension : CM (complete main)
Format settings, Endianness : Big
Codec ID : A_AC3
Duration : 2h 45mn
Bit rate mode : Constant
Bit rate : 448 Kbps
Channel(s) : 6 channels
Channel positions : Front: L C R, Side: L R, LFE
Sampling rate : 48.0 KHz
Bit depth : 16 bits
Compression mode : Lossy
Stream size : 529 MiB (8%)
Title : Профессиональный (полное дублирование) - Blu-Ray CEE | DD 5.1 @ 448 kbps
Language : Russian
Default : Yes
Forced : No
Audio #2
ID : 3
Format : AC-3
Format/Info : Audio Coding 3
Mode extension : CM (complete main)
Format settings, Endianness : Big
Codec ID : A_AC3
Duration : 2h 45mn
Bit rate mode : Constant
Bit rate : 448 Kbps
Channel(s) : 6 channels
Channel positions : Front: L C R, Side: L R, LFE
Sampling rate : 48.0 KHz
Bit depth : 16 bits
Compression mode : Lossy
Stream size : 529 MiB (8%)
Title : Оригинал (английский) | DD 5.1 @ 448 kbps
Language : English
Default : No
Forced : No
Text #1
ID : 4
Format : UTF-8
Codec ID : S_TEXT/UTF8
Codec ID/Info : UTF-8 Plain Text
Title : iTunes
Language : Russian
Default : No
Forced : No
Text #2
ID : 5
Format : UTF-8
Codec ID : S_TEXT/UTF8
Codec ID/Info : UTF-8 Plain Text
Title : Forced
Language : Russian
Default : Yes
Forced : No
Text #3
ID : 6
Format : UTF-8
Codec ID : S_TEXT/UTF8
Codec ID/Info : UTF-8 Plain Text
Title : Blu-ray CEE
Language : Ukrainian
Default : No
Forced : No
Text #4
ID : 7
Format : UTF-8
Codec ID : S_TEXT/UTF8
Codec ID/Info : UTF-8 Plain Text
Title : Full
Language : English
Default : No
Forced : No
Text #5
ID : 8
Format : UTF-8
Codec ID : S_TEXT/UTF8
Codec ID/Info : UTF-8 Plain Text
Title : SDH #1
Language : English
Default : No
Forced : No
Text #6
ID : 9
Format : UTF-8
Codec ID : S_TEXT/UTF8
Codec ID/Info : UTF-8 Plain Text
Title : SDH #2
Language : English
Default : No
Forced : No
Text #7
ID : 10
Format : UTF-8
Codec ID : S_TEXT/UTF8
Codec ID/Info : UTF-8 Plain Text
Title : SDH.COLORED
Language : English
Default : No
Forced : No
Menu
00:00:00.000 : en:Chapter 01
00:06:51.577 : en:Chapter 02
00:14:33.581 : en:Chapter 03
00:21:37.462 : en:Chapter 04
00:30:13.394 : en:Chapter 05
00:38:45.990 : en:Chapter 06
00:46:08.056 : en:Chapter 07
00:51:39.513 : en:Chapter 08
00:59:09.337 : en:Chapter 09
01:07:48.647 : en:Chapter 10
01:15:14.551 : en:Chapter 11
01:23:25.291 : en:Chapter 12
01:29:14.724 : en:Chapter 13
01:37:16.956 : en:Chapter 14
01:44:35.435 : en:Chapter 15
01:51:25.053 : en:Chapter 16
01:57:47.935 : en:Chapter 17
02:04:48.481 : en:Chapter 18
02:12:35.864 : en:Chapter 19
02:21:04.205 : en:Chapter 20
02:28:48.669 : en:Chapter 21
02:37:09.628 : en:Chapter 22
Source vs rip by zOJIOtOi Скриншоты Релиз групп:
Скачать

Скачать торрент!

Как скачивать? · Что такое торрент? · Рейтинг и ограничения

Сайт не распространяет и не хранит электронные версии произведений, а лишь предоставляет доступ к создаваемому пользователями каталогу ссылок на торрент-файлы, которые содержат только списки хеш-сумм

[Профиль] [ЛС]
Показать сообщения:    
Ответить на тему

Текущее время: Сегодня 12:54

Часовой пояс: GMT + 4



Вы не можете начинать темы
Вы не можете отвечать на сообщения
Вы не можете редактировать свои сообщения
Вы не можете удалять свои сообщения
Вы не можете голосовать в опросах
Вы не можете прикреплять файлы к сообщениям
Вы не можете скачивать файлы