Книга судного дня / Doomsday Book / Inlyumyeolmangbogoseo (Ким Чжи-ун / Kim Ji-woon, Пиль-Сунг Йим / Lim Pil-seong) [2012, Южная Корея, фантастика, ужасы, триллер, драма, HDRip] MVO + original Kor + Sub (rus, eng)

Ответить на тему
 
Автор Сообщение

user ®

Стаж: 13 лет

Сообщений: 15071

Пост Пост: #1 от 16-Ноя-2014 19:45

[Цитировать]

Книга судного дня / Doomsday Book / Inlyumyeolmangbogoseo- -Страна: Южная Корея
Жанр: фантастика, ужасы, триллер, драма
Год выпуска: 2012
Продолжительность: 01:53:35-Перевод: Профессиональный (многоголосый закадровый)-Cубтитры: русские, английские [отдельно]
Оригинальная аудиодорожка: корейский
Режиссер: Ким Чжи-ун / Kim Ji-woon, Пиль-Сунг Йим / Lim Pil-seong
В ролях: Рю Сын Пом, Ко Джун Хи, Пак Хэ Ир, Ким Кан У, Ким Гё Ри, Ма Дон Сок
Описание: Три уникальные истории о человеческом самоуничтожении в современную эру высоких технологий. В надежде восстановить гуманное сострадание в наше бесчувственное время, фильм демонстрирует альтернативную сторону подлинного человечества. Вы станете свидетелем мира будущего, где вас ожидает серия неожиданных историй. Все эти истории происходят на Земле.
Релиз от -
Сэмпл: http://multi-up.com/1013479
Качество видео: HDRip
Формат видео: AVI
Видео: MPEG-4 Visual at 1910 Кбит/сек; 720 x 304 (2.368) at 23.976 fps
Аудио: AC-3 at 384 Кбит/сек; 6 каналов, 48,0 КГц [MVO]
Аудио: AC-3 at 448 Кбит/сек; 6 каналов, 48,0 КГц [Kor]
Автор -
MediaInfo
Общее
Полное имя : D:\Фильмы\Азиатские\Книга судного дня\Doomsday Book.2012.HDRip.XviD.2200MB. rip by [Assassin's Creed]\Doomsday Book.2012.HDRip.XviD.2200MB. rip by [Assassin's Creed].avi
Формат : AVI
Формат/Информация : Audio Video Interleave
Профиль формата : OpenDML
Размер файла : 2,19 Гбайт
Продолжительность : 1 ч. 53 м.
Общий поток : 2758 Кбит/сек
Программа кодирования : VirtualDubMod 1.5.10.2 (build 2540/release)
Библиотека кодирования : VirtualDubMod build 2540/release
Видео
Идентификатор : 0
Формат : MPEG-4 Visual
Профиль формата : Advanced Simple@L5
Параметр BVOP формата : 1
Параметр QPel формата : Нет
Параметр GMC формата : Без точки перехода
Параметр матрицы формата : Default (MPEG)
Идентификатор кодека : XVID
Идентификатор кодека/Подсказка : XviD
Продолжительность : 1 ч. 53 м.
Битрейт : 1910 Кбит/сек
Ширина : 720 пикселей
Высота : 304 пикселя
Соотношение сторон : 2,35:1
Частота кадров : 23,976 кадра/сек
Цветовое пространство : YUV
Субдискретизация насыщенности : 4:2:0
Битовая глубина : 8 бит
Тип развёртки : Прогрессивная
Метод сжатия : С потерями
Бит/(Пиксели*Кадры) : 0.364
Размер потока : 1,52 Гбайт (69%)
Библиотека кодирования : XviD 1.2.1 (UTC 2008-12-04)
Аудио #1
Идентификатор : 1
Формат : AC-3
Формат/Информация : Audio Coding 3
Расширение режима : CM (complete main)
Параметр Endianness формата : Big
Идентификатор кодека : 2000
Продолжительность : 1 ч. 53 м.
Вид битрейта : Постоянный
Битрейт : 384 Кбит/сек
Каналы : 6 каналов
Расположение каналов : Front: L C R, Side: L R, LFE
Частота : 48,0 КГц
Битовая глубина : 16 бит
Метод сжатия : С потерями
Размер потока : 311 Мбайт (14%)
Выравнивание : Разделение по промежуткам
Продолжительность промежутка : 42 мс. (1,00 видеокадр)
Время предзагрузки промежутка : 500 мс.
Аудио #2
Идентификатор : 2
Формат : AC-3
Формат/Информация : Audio Coding 3
Расширение режима : CM (complete main)
Параметр Endianness формата : Big
Идентификатор кодека : 2000
Продолжительность : 1 ч. 53 м.
Вид битрейта : Постоянный
Битрейт : 448 Кбит/сек
Каналы : 6 каналов
Расположение каналов : Front: L C R, Side: L R, LFE
Частота : 48,0 КГц
Битовая глубина : 16 бит
Метод сжатия : С потерями
Размер потока : 364 Мбайт (16%)
Выравнивание : Разделение по промежуткам
Продолжительность промежутка : 42 мс. (1,00 видеокадр)
Время предзагрузки промежутка : 500 мс.
Общее
Полное имя : D:\Фильмы\Азиатские\Книга судного дня\Doomsday Book.2012.HDRip.XviD.2200MB. rip by [Assassin's Creed]\Doomsday Book.2012.HDRip.XviD.2200MB. rip by [Assassin's Creed].eng.srt
Формат : SubRip
Размер файла : 74,9 Кбайт
Текст
Формат : SubRip
Метод сжатия : Без потерь
Общее
Полное имя : D:\Фильмы\Азиатские\Книга судного дня\Doomsday Book.2012.HDRip.XviD.2200MB. rip by [Assassin's Creed]\Doomsday Book.2012.HDRip.XviD.2200MB. rip by [Assassin's Creed].rus.srt
Формат : SubRip
Размер файла : 94,8 Кбайт
Текст
Формат : SubRip
Метод сжатия : Без потерь
Скриншот c названием фильма Скриншоты
Скачать

Скачать торрент! Книга судного дня / Doomsday Book / Inlyumyeolmangbogoseo (Ким Чжи-ун / Kim Ji-woon, Пиль-Сунг Йим / Lim Pil-seong) [2012, Южная Корея, фантастика, ужасы, триллер, драма, HDRip] MVO + original Kor + Sub (rus, eng)

Как скачивать? · Что такое торрент? · Рейтинг и ограничения

Сайт не распространяет и не хранит электронные версии произведений, а лишь предоставляет доступ к создаваемому пользователями каталогу ссылок на торрент-файлы, которые содержат только списки хеш-сумм

[Профиль] [ЛС]
Показать сообщения:    
Ответить на тему

Текущее время: Сегодня 17:47

Часовой пояс: GMT + 4



Вы не можете начинать темы
Вы не можете отвечать на сообщения
Вы не можете редактировать свои сообщения
Вы не можете удалять свои сообщения
Вы не можете голосовать в опросах
Вы не можете прикреплять файлы к сообщениям
Вы не можете скачивать файлы