Лучшие / Super (Пури Джаганнатх / Puri Jagannadh) [2005, Индия, Боевик, драма, комедия, детектив, DVDRip] VO

Ответить на тему
 
Автор Сообщение

user ®

Стаж: 12 лет

Сообщений: 15092

Пост Пост: #1 от 16-Ноя-2014 19:45

[Цитировать]

Лучшие / Super
Страна: Индия
Жанр: Боевик, драма, комедия, детектив
Год выпуска: 2005
Продолжительность: 02:24:16
Перевод: Одноголосый закадровый Alex White
Cубтитры: нет
Режиссер: Пури Джаганнатх / Puri Jagannadh
В ролях: Нагарджуна Акинени, Сону Суд, Айеша Такиа, Анушка Шетти, Саяджи Шинде, Пиюш Мишра, Брахманандам, Али, Венкатесвара Рао Паручури, Сунил
Описание: Акхил занимается таксомоторным бизнесом. Он влюбляется в доктора Шири Валли и она отвечает ему взаимностью. У Шири есть названый брат Сону, когда-то он работал у отца Шири в его гараже. После банкротства отца Шири, Сону взял на себя заботу о них. Но Акхил и Сону — враги. Когда Сону узнает, что Шири любит его врага, он просит, чтобы она порвала с ним. Шири приходит к Ахилу и тут выясняется, что раньше ее возлюбленный и ее названный брат были лучшими друзьями. Почему же их дружба переросла в ненависть?
Доп. информация: Релиз
Перевод субтитров: ssshahi (Спасибо!)
Творческая озвучка: Alex White (Спасибо!)
Сэмпл: http://multi-up.com/1013549
Качество видео: DVDRip
Формат видео: AVI
Видео: XviD build 37, 640x272 (2.35:1), 29.970 fps, 1216 kbps avg
Аудио: MPEG Layer 3, 48 kHz, 2/0 (L,R) ch, 128.00 kbps avg
MediaInfo
General
Complete name : D:\Luchshie.2005.DVDRip.XviD.BwTorrents.avi
Format : AVI
Format/Info : Audio Video Interleave
File size : 1.37 GiB
Duration : 2h 24mn
Overall bit rate : 1 357 Kbps
Movie name : Luchshie.2005.DVDRip.XviD.BwTorrents
Writing application : VirtualDubMod 1.5.10.3 | www.virtualdub-fr.org || (build 2550/release)
Video
ID : 0
Format : MPEG-4 Visual
Format profile : AdvancedSimple@L5
Format settings, BVOP : Yes
Format settings, QPel : No
Format settings, GMC : No warppoints
Format settings, Matrix : Custom
Muxing mode : Packed bitstream
Codec ID : XVID
Codec ID/Hint : XviD
Duration : 2h 24mn
Bit rate : 1 217 Kbps
Width : 640 pixels
Height : 272 pixels
Display aspect ratio : 2.35
Frame rate : 29.970 fps
Resolution : 24 bits
Colorimetry : 4:2:0
Scan type : Progressive
Bits/(Pixel*Frame) : 0.233
Stream size : 1.23 GiB (90%)
Writing library : XviD 1.0.3 (UTC 2004-12-20)
Audio
ID : 1
Format : MPEG Audio
Format version : Version 1
Format profile : Layer 3
Codec ID : 55
Codec ID/Hint : MP3
Duration : 2h 24mn
Bit rate mode : Constant
Bit rate : 128 Kbps
Channel(s) : 2 channels
Sampling rate : 48.0 KHz
Resolution : 16 bits
Stream size : 132 MiB (9%)
Alignment : Aligned on interleaves
Interleave, duration : 33 ms (1.00 video frame)
Interleave, preload duration : 504 ms
Скриншоты
Скачать

Скачать торрент! Лучшие / Super (Пури Джаганнатх / Puri Jagannadh) [2005, Индия, Боевик, драма, комедия, детектив, DVDRip] VO

Как скачивать? · Что такое торрент? · Рейтинг и ограничения

Сайт не распространяет и не хранит электронные версии произведений, а лишь предоставляет доступ к создаваемому пользователями каталогу ссылок на торрент-файлы, которые содержат только списки хеш-сумм

[Профиль] [ЛС]
Показать сообщения:    
Ответить на тему

Текущее время: Сегодня 19:45

Часовой пояс: GMT + 4



Вы не можете начинать темы
Вы не можете отвечать на сообщения
Вы не можете редактировать свои сообщения
Вы не можете удалять свои сообщения
Вы не можете голосовать в опросах
Вы не можете прикреплять файлы к сообщениям
Вы не можете скачивать файлы