Однокомнатные соседи / Соседи по комнате / L.DK (Тайске Кавамура / Taisuke Kawamura) [2014, Япония, мелодрама, комедия, HDRip] Original Jap + Sub (rus) [Yuli4ka Daisuke]

Ответить на тему
 
Автор Сообщение

user ®

Стаж: 13 лет

Сообщений: 15071

Пост Пост: #1 от 16-Ноя-2014 16:35

[Цитировать]

Однокомнатные соседи / Соседи по комнате / L.DK- -Страна: Япония
Жанр: мелодрама, комедия
Год выпуска: 2014
Продолжительность: 01:53:08-Перевод: Субтитры [Yuli4ka_Daisuke]-Cубтитры: русские [вшитые]
Оригинальная аудиодорожка: японский
Режиссер: Тайске Кавамура / Taisuke Kawamura
В ролях: Аямэ Горики, Кэнто Ямадзаки, Акиёши Накао, Анна Исибаси, Михо Шираиши, Сэйдзи Фукуси, Реи Окамото, Рен Кирияма, Кент Ямадзаки
Описание: Кугаяма Сюсэй, школьный «принц», отказывает всем девушкам, которые хотят с ним встречаться. Лучшая подруга Аой не исключение. За то, что парень отверг её подругу Моэ, девушка ненавидит его… До тех пор, пока по стечению обстоятельств им не приходится жить вместе в тесной квартирке.
Релиз от -
Сэмпл: http://multi-up.com/1013355
Качество видео: HDRip
Формат видео: AVI
Видео: MPEG-4 Visual at 1395 Кбит/сек; 720 x 384 (1.875) at 23.976 fps
Аудио: AC-3 at 448 Кбит/сек; 6 каналов, 48,0 КГц
Автор -
MediaInfo
Общее
Полное имя : D:\Фильмы\Азиатские\Однокомнатные соседи\L.DK.2014.HDRip.XviD.1400MB. rip by [Assassin's Creed].avi
Формат : AVI
Формат/Информация : Audio Video Interleave
Размер файла : 1,46 Гбайт
Продолжительность : 1 ч. 53 м.
Общий поток : 1852 Кбит/сек
Программа кодирования : VirtualDubMod 1.5.10.3 | www.virtualdub-fr.org || (build 2550/release)
Библиотека кодирования : VirtualDubMod build 2550/release
Видео
Идентификатор : 0
Формат : MPEG-4 Visual
Профиль формата : Advanced Simple@L5
Параметр BVOP формата : 1
Параметр QPel формата : Нет
Параметр GMC формата : Без точки перехода
Параметр матрицы формата : Default (MPEG)
Идентификатор кодека : XVID
Идентификатор кодека/Подсказка : XviD
Продолжительность : 1 ч. 53 м.
Битрейт : 1395 Кбит/сек
Ширина : 720 пикселей
Высота : 384 пикселя
Соотношение сторон : 1,85:1
Частота кадров : 23,976 кадра/сек
Цветовое пространство : YUV
Субдискретизация насыщенности : 4:2:0
Битовая глубина : 8 бит
Тип развёртки : Прогрессивная
Метод сжатия : С потерями
Бит/(Пиксели*Кадры) : 0.210
Размер потока : 1,10 Гбайт (75%)
Библиотека кодирования : XviD 1.2.1 (UTC 2008-12-04)
Аудио
Идентификатор : 1
Формат : AC-3
Формат/Информация : Audio Coding 3
Расширение режима : CM (complete main)
Параметр Endianness формата : Big
Идентификатор кодека : 2000
Продолжительность : 1 ч. 53 м.
Вид битрейта : Постоянный
Битрейт : 448 Кбит/сек
Каналы : 6 каналов
Расположение каналов : Front: L C R, Side: L R, LFE
Частота : 48,0 КГц
Битовая глубина : 16 бит
Метод сжатия : С потерями
Размер потока : 363 Мбайт (24%)
Выравнивание : Разделение по промежуткам
Продолжительность промежутка : 42 мс. (1,00 видеокадр)
Время предзагрузки промежутка : 500 мс.
Скриншот c названием фильма Скриншоты
Скачать

Скачать торрент! Однокомнатные соседи / Соседи по комнате / L.DK (Тайске Кавамура / Taisuke Kawamura) [2014, Япония, мелодрама, комедия, HDRip] Original Jap + Sub (rus) [Yuli4ka Daisuke]

Как скачивать? · Что такое торрент? · Рейтинг и ограничения

Сайт не распространяет и не хранит электронные версии произведений, а лишь предоставляет доступ к создаваемому пользователями каталогу ссылок на торрент-файлы, которые содержат только списки хеш-сумм

[Профиль] [ЛС]
Показать сообщения:    
Ответить на тему

Текущее время: Сегодня 22:20

Часовой пояс: GMT + 4



Вы не можете начинать темы
Вы не можете отвечать на сообщения
Вы не можете редактировать свои сообщения
Вы не можете удалять свои сообщения
Вы не можете голосовать в опросах
Вы не можете прикреплять файлы к сообщениям
Вы не можете скачивать файлы