Фобия 2 / Phobia 2 / Ha Phraeng (Баньенг Писензенекун / Banjong Pisanthanakun, Пэйвин Пурикитпанья / Paween Purikitpanya, Сонгюс Сугмаканан / Songyos Sugmakanan) [2009, Тайланд, ужасы, HDRip] VO (-Anubis-) + Sub Rus, Eng + Original Thai

Ответить на тему
 
Автор Сообщение

user ®

Стаж: 13 лет

Сообщений: 15071

Пост Пост: #1 от 16-Ноя-2014 16:35

[Цитировать]

Фобия 2 / Phobia 2 / Ha Phraeng
Страна: Таиланд
Студия: GMM Tai Hub (GTH)
Жанр: ужасы
Год выпуска: 2009
Продолжительность: 02:00:07
Перевод: Одноголосый закадровый -Anubis-
Cубтитры: русские, английские
Оригинальная аудиодорожка: тайский
Режиссеры: Баньенг Писензенекун / Banjong Pisanthanakun, Пэйвин Пурикитпанья / Paween Purikitpanya, Сонгюс Сугмаканан / Songyos Sugmakanan, Паркпум Вонгпум / Parkpoom Wongpoom
В ролях: Джираю Ла-Онгмани, Рэй МакДональд, Чумпхорн Тепфитак, Апасири Нитибхон, Дан Ворравеч, Гача Плиенвитхи, Саринрат Тхомас, Чартпави Тричаванвонг, Чарли Трайраттана, Сутируш Чаннукул…
Описание: На этот раз в сборник студии GTH вошло целых 5 историй. Режиссерский состав почти не изменился, вместо Youngyooth Thongkonthun свою новеллу представил Songyos Sugmakanan (Dek hor / Пансионат)
В итоге получились и весьма не дурно, перекрыв первую "Фобию", кол-вом и качеством, 4 истории Gost movie и одна – zombie movie.
II Сэмпл II IMDB II
Релиз группа:

Доп. информация:
За одноголосый перевод спасибо -Anubis-
За русские субтитры спасибо reddram
Качество видео: HDRip (Phobia_2.2009-BlurayRip.1036p.x264-SeeingMole)
Формат видео: AVI
Видео: Xvid 720x384 (1.87:1) 25.0fps Bit rate 1891Kbps b/p 0.274
Аудио 1: AC3 48.0 KHz 2ch. 192kbps rus vo
Аудио 2: AC3 48.0 KHz 6ch. 448kbps thai
Формат субтитров: softsub (SRT)
Описание историй
1. Novice / Послушник
В конце празднества голодных призраков в буддийский монастырь попадет 14-летний сорванец, и сразу нарушает серьезный запрет, чем наводит на себя гнев скитающихся духов
2. Ward / Больничная палата
Молодого парня после аварии помещают в палату, где его соседом будет старик, лежащий в коме. Вместе им предстоит провести лишь одну ночь. Утром старика собираются отключить от системы жизнеобеспечения.
3. Backpackers / Автостопщики
Путешествующая пара из Японии застряла где-то в глуши Бангкокской области. Единственный кто взялся их подвезти - водитель грузовика с напарником, в кузове которых, как оказалось, находится весьма опасный груз.
4. Salvage / Утиль
Предприимчивая мадам впаривает обманом автомобили, восстановленные после аварий со смертельным исходом. Однажды она задержалась на работе допоздна и ей представилась полная возможность ощутить на себе суеверные опасения своих покупателей.
5. In the End / Концовка
Дружественный стеб над Gost movie. С участием Masha Wattanapanich, сыгравшей главную роль в Alone.
На съемках сиквела Alone-2 исполнительницу роли призрака, прямо в гриме, увозят в больницу. Осталась не доснятой последняя сцена. Пока съемочная группа ищет выход из ситуации, больная чудесным образом вновь оказывается на площадке, а из больницы в это время сообщают о ее смерти.
MediaInfo
Общее
Полное имя : E:\torrent\Phobia 2.HDRip\Phobia 2.HDRip.avi
Формат : AVI
Формат/Информация : Audio Video Interleave
Профиль формата : OpenDML
Размер файла : 2,14 Гбайт
Продолжительность : 2 ч. 0 м.
Общий поток : 2550 Кбит/сек
Программа кодирования : VirtualDubMod 1.5.10.3 (build 2550/release)
Библиотека кодирования : VirtualDubMod build 2550/release
Видео
Идентификатор : 0
Формат : MPEG-4 Visual
Профиль формата : Advanced Simple@L5
Параметр BVOP формата : 2
Параметр QPel формата : Нет
Параметр GMC формата : Без точки перехода
Параметр матрицы формата : Default (H.263)
Идентификатор кодека : XVID
Идентификатор кодека/Подсказка : XviD
Продолжительность : 2 ч. 0 м.
Битрейт : 1891 Кбит/сек
Ширина : 720 пикселей
Высота : 384 пикселя
Соотношение сторон : 1,85:1
Частота кадров : 25,000 кадров/сек
Цветовое пространство : YUV
Субдискретизация насыщенности : 4:2:0
Битовая глубина : 8 бит
Тип развёртки : Прогрессивная
Метод сжатия : С потерями
Бит/(Пиксели*Кадры) : 0.274
Размер потока : 1,59 Гбайт (74%)
Библиотека кодирования : XviD 65
Аудио #1
Идентификатор : 1
Формат : AC-3
Формат/Информация : Audio Coding 3
Расширение режима : CM (complete main)
Параметр Endianness формата : Big
Идентификатор кодека : 2000
Продолжительность : 2 ч. 0 м.
Вид битрейта : Постоянный
Битрейт : 192 Кбит/сек
Каналы : 2 канала
Расположение каналов : Front: L R
Частота : 48,0 КГц
Битовая глубина : 16 бит
Метод сжатия : С потерями
Размер потока : 165 Мбайт (8%)
Выравнивание : Разделение по промежуткам
Продолжительность промежутка : 40 мс. (1,00 видеокадр)
Время предзагрузки промежутка : 500 мс.
Аудио #2
Идентификатор : 2
Формат : AC-3
Формат/Информация : Audio Coding 3
Расширение режима : CM (complete main)
Параметр Endianness формата : Big
Идентификатор кодека : 2000
Продолжительность : 2 ч. 0 м.
Вид битрейта : Постоянный
Битрейт : 448 Кбит/сек
Каналы : 6 каналов
Расположение каналов : Front: L C R, Side: L R, LFE
Частота : 48,0 КГц
Битовая глубина : 16 бит
Метод сжатия : С потерями
Размер потока : 385 Мбайт (18%)
Выравнивание : Разделение по промежуткам
Продолжительность промежутка : 40 мс. (1,00 видеокадр)
Время предзагрузки промежутка : 500 мс.
Скриншот c названием фильма Скриншоты Сравнение
[url=http://***/forum/viewtopic.php?t=2618027]http://***/forum/viewtopic.php?t=2618027[/url]
http://screenshotcomparison.com/comparison/100313
Скачать

Скачать торрент! Фобия 2 / Phobia 2 / Ha Phraeng (Баньенг Писензенекун / Banjong Pisanthanakun, Пэйвин Пурикитпанья / Paween Purikitpanya, Сонгюс Сугмаканан / Songyos Sugmakanan) [2009, Тайланд, ужасы, HDRip] VO (-Anubis-) + Sub Rus, Eng + Original Thai

Как скачивать? · Что такое торрент? · Рейтинг и ограничения

Сайт не распространяет и не хранит электронные версии произведений, а лишь предоставляет доступ к создаваемому пользователями каталогу ссылок на торрент-файлы, которые содержат только списки хеш-сумм

[Профиль] [ЛС]
Показать сообщения:    
Ответить на тему

Текущее время: Сегодня 21:04

Часовой пояс: GMT + 4



Вы не можете начинать темы
Вы не можете отвечать на сообщения
Вы не можете редактировать свои сообщения
Вы не можете удалять свои сообщения
Вы не можете голосовать в опросах
Вы не можете прикреплять файлы к сообщениям
Вы не можете скачивать файлы