Геракл: Начало легенды / The Legend of Hercules (Ренни Харлин / Renny Harlin) [2014, США, Болгария, боевик, фэнтези, BDRip] Dub (BD RUS) + Original Eng + sub (eng)

Ответить на тему
 
Автор Сообщение

user ®

Стаж: 7 лет 11 месяцев

Сообщений: 20008

Пост Пост: #1 от 16-Ноя-2014 16:35

[Цитировать]

Геракл: Начало легенды / The Legend of Hercules- Год выпуска: 2014
Выпущено: США, Болгария
Жанр: боевик, фэнтези
Продолжительность: 01:38:38
Перевод: Профессиональный (полное дублирование) BD RUS
Оригинальная звуковая дорожка: English
Субтитры: Английские (внешние srt*)-Режиссер: Ренни Харлин / Renny Harlin
В ролях: Келлан Латс, Джая Уайсс, Скотт Эдкинс, Роксанна МакКи, Лайам Гэрриган, Лиам МакИнтайр, Раде Шербеджия, Джонатон Шек, Люк Ньюберри, Кеннет Крэнэм
О фильме: 1200 г. до н. э. Древняя Греция. Прекрасная царица Алкмена попала под чары грозного бога Олимпа — Зевса и родила ему сына Геракла. При рождении ему было предсказано стать величайшим воином, который будет властвовать над народами и принесет мир и процветание своей стране. Но пока Геракл ничего не знает о своем предназначении. Он вырос прекрасным и сильным юношей. Он мечтает о любви принцессы Крита, Гебы, которая
обещана в жены его брату. Когда Геракл узнает о своей великой миссии, он должен выбрать: сбежать со своей любовью или исполнить свое предназначение. Ему предстоит сразиться с кентавром, победить гигантов, выросших из зубов дракона, перехитрить богинь Судьбы, спасти свою возлюбленную Гебу и выйти на бой со своим злейшим врагом — сыном бога войны Ареса.
Релиз:
Автор: kingsize87
Качество: BDRip (источник: CHDBits / BD-Remux MPEG-4 AVC 29808 kbps / 1080p)
Формат: AVI
Видео: 720x304 (2.37:1), 23.976 fps, XviD build 65 ~2263 kbps avg, 0.43 bit/pixel
Аудио #1: 48 kHz, AC3 Dolby Digital, 3/2 (L,C,R,l,r) + LFE ch, ~448.00 kbps avg rus
Аудио #2: 48 kHz, AC3 Dolby Digital, 3/2 (L,C,R,l,r) + LFE ch, ~448.00 kbps avg eng
Размер: 2234.82 Mb (1/2 DVD-R)
Скачать: Семпл-

Кадры из фильма
-
Mi
Формат : AVI
Формат/Информация : Audio Video Interleave
Профиль формата : OpenDML
Размер файла : 2,18 Гбайт
Продолжительность : 1 ч. 38 м.
Общий поток : 3167 Кбит/сек
Название фильма : Геракл: Начало легенды / The Legend of Hercules (2014) BDRip
Режиссёр : kingsize87
Программа кодирования : VirtualDubMod 1.5.10.2 (build 2540/release)
Правообладатель : HQCLUB
Примечание : 16.11.2014
Видео
Идентификатор : 0
Формат : MPEG-4 Visual
Профиль формата : Advanced Simple@L5
Параметр BVOP формата : 1
Параметр QPel формата : Нет
Параметр GMC формата : Без точки перехода
Параметр матрицы формата : Выборочная
Идентификатор кодека : XVID
Идентификатор кодека/Подсказка : XviD
Продолжительность : 1 ч. 38 м.
Битрейт : 2253 Кбит/сек
Ширина : 720 пикселей
Высота : 304 пикселя
Соотношение сторон : 2,35:1
Частота кадров : 23,976 кадра/сек
Цветовое пространство : YUV
Субдискретизация насыщенности : 4:2:0
Битовая глубина : 8 бит
Тип развёртки : Прогрессивная
Метод сжатия : С потерями
Бит/(Пиксели*Кадры) : 0.429
Размер потока : 1,55 Гбайт (71%)
Библиотека кодирования : XviD 65
Аудио #1
Идентификатор : 1
Формат : AC-3
Формат/Информация : Audio Coding 3
Расширение режима : CM (complete main)
Параметр Endianness формата : Big
Идентификатор кодека : 2000
Продолжительность : 1 ч. 38 м.
Вид битрейта : Постоянный
Битрейт : 448 Кбит/сек
Каналы : 6 каналов
Расположение каналов : Front: L C R, Side: L R, LFE
Частота : 48,0 КГц
Битовая глубина : 16 бит
Метод сжатия : С потерями
Размер потока : 316 Мбайт (14%)
Выравнивание : Разделение по промежуткам
Продолжительность промежутка : 42 мс. (1,00 видеокадр)
Время предзагрузки промежутка : 500 мс.
Аудио #2
Идентификатор : 2
Формат : AC-3
Формат/Информация : Audio Coding 3
Расширение режима : CM (complete main)
Параметр Endianness формата : Big
Идентификатор кодека : 2000
Продолжительность : 1 ч. 38 м.
Вид битрейта : Постоянный
Битрейт : 448 Кбит/сек
Каналы : 6 каналов
Расположение каналов : Front: L C R, Side: L R, LFE
Частота : 48,0 КГц
Битовая глубина : 16 бит
Метод сжатия : С потерями
Размер потока : 316 Мбайт (14%)
Выравнивание : Разделение по промежуткам
Продолжительность промежутка : 42 мс. (1,00 видеокадр)
Время предзагрузки промежутка : 500 мс.

-
Цитата:
* За синхронизацию русской звуковой дорожки относительно оригинала большое спасибо Vouka.
* С данного трансфера рипов не встретил в принципе. Все с той дешевой поделки, которая гуляет по сети.
Скачать

Скачать торрент!

Как скачивать? · Что такое торрент? · Рейтинг и ограничения

Сайт не распространяет и не хранит электронные версии произведений, а лишь предоставляет доступ к создаваемому пользователями каталогу ссылок на торрент-файлы, которые содержат только списки хеш-сумм

[Профиль] [ЛС]
Показать сообщения:    
Ответить на тему

Текущее время: Сегодня 09:50

Часовой пояс: GMT + 4



Вы не можете начинать темы
Вы не можете отвечать на сообщения
Вы не можете редактировать свои сообщения
Вы не можете удалять свои сообщения
Вы не можете голосовать в опросах
Вы не можете прикреплять файлы к сообщениям
Вы не можете скачивать файлы