Лучшие друзья / Признание / Good Friends / Confession / Joeun Chingoodeul (Ли До Юн / Lee Do-yoon) [2014, Южная Корея, криминал, боевик, триллер, HDTVRip] DVO (Green Tea)

Ответить на тему
 
Автор Сообщение

user ®

Стаж: 13 лет

Сообщений: 15071

Пост Пост: #1 от 15-Ноя-2014 20:05

[Цитировать]

Лучшие друзья / Признание /
Good Friends / Confession / Joeun Chingoodeul
Страна: Южная Корея
Жанр: криминал, боевик, триллер
Год выпуска: 2014
Продолжительность: 01:53:41
Перевод: Любительский (двухголосый закадровый)
Дмитрий Познанский и Айя Сона [Green Tea]
Cубтитры: нет
Режиссер: Ли До Юн / Lee Do-yoon
В ролях: Ли Сон Гюн, Чо Чжин Ун, Чон Ман Сик, Шин Дон Ми, Син Чжон Гын
Описание: Хён Тэ, Ин Чхоль и Мин Су лучшие друзья со школы и считают себя семьей. Хён Тэ работает пожарником и воспитывает маленькую дочь. Ин Чхоль — работает в страховой компании и известен как страховой агент, готовый пойти на любое мошенничество со страховыми выплатами. Мин Су работает в сфере малого бизнеса. Однажды, мать Хён Тэ попросила устроить Ин Чхоля аферу со страховкой принадлежавшего ей небольшого салона с игровыми автоматами. Парни согласились, но это привело к трагедии, которая разрушила не только их отношения, но и их жизни…
Доп. информация:


Сэмпл: http://multi-up.com/1013165
Качество видео: HDTVRip
Формат видео: AVI
Видео: 1 843 Kbps, 720х576, AVC, Main@L3.0
Аудио: Russian / Korean: AC3, 224 Kbps (2 ch), 48.0 KHz, 16 bits
MediaInfo
General
Полное имя : C:\Users\User\Videos\Good.Friends.2014.HDTV.720p..avi
Формат : AVI
Формат/Информация : Audio Video Interleave
Профиль формата : OpenDML
Размер файла : 1.64 GiB
Продолжительность : 1h 53mn
Общий поток : 2 060 Kbps
Программа кодирования : Lavf54.63.104
Video
Идентификатор : 0
Формат : AVC
Формат/Информация : Advanced Video Codec
Профиль формата : Main@L3.0
Параметр CABAC формата : Yes
Параметр ReFrames формата : 1 frame
Идентификатор кодека : H264
Продолжительность : 1h 53mn
Битрейт : 1 843 Kbps
Ширина : 720 pixels
Высота : 576 pixels
Соотношение сторон : 5:4
Режим частоты кадров : Variable
Частота кадров : 23.976 fps
Стандарт вещания : PAL
Цветовое пространство : YUV
Субдискретизация насыщенности : 4:2:0
Битовая глубина : 8 bits
Тип развёртки : Progressive
Бит/(Пиксели*Кадры) : 0.185
Размер потока : 1.45 GiB (89%)
Библиотека кодирования : x264 core 129
Настройки программы : cabac=1 / ref=1 / deblock=1:0:0 / analyse=0x1:0x131 / me=dia / subme=2 / psy=1 / psy_rd=1.00:0.00 / mixed_ref=0 / me_range=16 / chroma_me=1 / trellis=0 / 8x8dct=0 / cqm=0 / deadzone=21,11 / fast_pskip=1 / chroma_qp_offset=0 / threads=4 / lookahead_threads=1 / sliced_threads=0 / nr=0 / decimate=1 / interlaced=0 / bluray_compat=0 / constrained_intra=0 / bframes=0 / weightp=2 / keyint=250 / keyint_min=25 / scenecut=40 / intra_refresh=0 / rc_lookahead=40 / rc=abr / mbtree=1 / bitrate=1843 / ratetol=1.0 / qcomp=0.60 / qpmin=10 / qpmax=51 / qpstep=4 / ip_ratio=1.41 / aq=1:1.00
Audio
Идентификатор : 1
Формат : AC-3
Формат/Информация : Audio Coding 3
Расширение режима : CM (complete main)
Параметр Endianness формата : Big
Идентификатор кодека : 2000
Продолжительность : 1h 53mn
Вид битрейта : Constant
Битрейт : 224 Kbps
Каналы : 2 channels
Расположение каналов : Front: L R
Частота : 48.0 KHz
Битовая глубина : 16 bits
Метод сжатия : Lossy
Размер потока : 182 MiB (11%)
Выравнивание : Aligned on interleaves
Продолжительность промежутка : 32 ms (0.77 video frame)
Скриншот c названием фильма Скриншоты
Скачать

Скачать торрент! Лучшие друзья / Признание / Good Friends / Confession / Joeun Chingoodeul (Ли До Юн / Lee Do-yoon) [2014, Южная Корея, криминал, боевик, триллер, HDTVRip] DVO (Green Tea)

Как скачивать? · Что такое торрент? · Рейтинг и ограничения

Сайт не распространяет и не хранит электронные версии произведений, а лишь предоставляет доступ к создаваемому пользователями каталогу ссылок на торрент-файлы, которые содержат только списки хеш-сумм

[Профиль] [ЛС]
Показать сообщения:    
Ответить на тему

Текущее время: Сегодня 21:54

Часовой пояс: GMT + 4



Вы не можете начинать темы
Вы не можете отвечать на сообщения
Вы не можете редактировать свои сообщения
Вы не можете удалять свои сообщения
Вы не можете голосовать в опросах
Вы не можете прикреплять файлы к сообщениям
Вы не можете скачивать файлы