Смешанные чувства (Георгий Малков) [2014, Комедия, фантастика, DVDRip]

Ответить на тему
 
Автор Сообщение

user ®

Стаж: 7 лет 7 месяцев

Сообщений: 20008

Пост Пост: #1 от 15-Ноя-2014 13:45

[Цитировать]

Смешанные чувства
Жанр: Комедия, фантастика
Год выпуска: 2014
Продолжительность: 01:25:03
Режиссёр: Георгий Малков
В ролях: Александр Ревва, Павел Деревянко, Татьяна Космачева, Артем Сучков, Максим Коновалов, Эмиль Никогосян, Вадим Цаллати, Мария Сёмкина, Александр Булатов, Раиса Рязанова
Описание: Они настолько разные, что не должны были пересечься в обычной жизни. Фил — бывшая звезда 90-х, прославившийся в свое время одной единственной песней. Теперь он работает ди-джеем, завидует Олегу Газманову и не выносит ответственности. Петр — врач-карьерист, сухарь и педант. Записывает на диктофон свои планы на день, боится пригласить девушку на свидание и знать не знает кто такой Газманов. После электрошока они начинают испытывать чувства друг друга. Когда одному больно, то от боли вздрагивает и другой, когда одному из них страшно, то пугается и второй. Смеется один, непроизвольный смех у другого. Веселая жизнь и острые эмоции Фила рушат сначала системную размеренную работу Пети, а затем появляется проблема посерьезнее, когда вслед за Петей в его девушку влюбляется и Фил.

Качество видео: DVDRip [Исходник: DVD-5]
Формат видео: AVI
Видео: XviD, 656x352 (1.864), 1090 Кбит/с, 25 кадр/с
Аудио: Русский, MP3, 48000 Гц, 128 Кбит/с, 2 канала (Стерео)

Автор рипа - ivandubskoj
MediaInfo
General
Complete name : Smeshannye.chuvstva.2014.DVDRip.745MB.avi
Format : AVI
Format/Info : Audio Video Interleave
File size : 746 MiB
Duration : 1h 25mn
Overall bit rate : 1 227 Kbps
Movie name : Смешанные чувства (2014) DVDRip
Genre : Комедия, фантастика
Recorded date : 15.11.2014
Writing application : VirtualDubMod 1.5.10.3 (build 2550/release)
Writing library : VirtualDubMod build 2550/release
Copyright : rip by ivandubskoj
Video
ID : 0
Format : MPEG-4 Visual
Format profile : Advanced Simple@L5
Format settings, BVOP : 1
Format settings, QPel : No
Format settings, GMC : No warppoints
Format settings, Matrix : Default (MPEG)
Codec ID : XVID
Codec ID/Hint : XviD
Duration : 1h 25mn
Bit rate : 1 089 Kbps
Width : 656 pixels
Height : 352 pixels
Display aspect ratio : 1.864
Frame rate : 25.000 fps
Color space : YUV
Chroma subsampling : 4:2:0
Bit depth : 8 bits
Scan type : Progressive
Compression mode : Lossy
Bits/(Pixel*Frame) : 0.189
Stream size : 662 MiB (89%)
Writing library : XviD 73
Audio
ID : 1
Format : MPEG Audio
Format version : Version 1
Format profile : Layer 3
Codec ID : 55
Codec ID/Hint : MP3
Duration : 1h 25mn
Bit rate mode : Constant
Bit rate : 128 Kbps
Channel(s) : 2 channels
Sampling rate : 48.0 KHz
Compression mode : Lossy
Stream size : 77.9 MiB (10%)
Alignment : Aligned on interleaves
Interleave, duration : 40 ms (1.00 video frame)
Interleave, preload duration : 504 ms
Title : Russian
Writing library : LAME3.99r
Encoding settings : -m s -V 4 -q 0 -lowpass 17 -b 128
Скриншот c названием фильма Скриншоты
Скачать

Скачать торрент!

Как скачивать? · Что такое торрент? · Рейтинг и ограничения

Сайт не распространяет и не хранит электронные версии произведений, а лишь предоставляет доступ к создаваемому пользователями каталогу ссылок на торрент-файлы, которые содержат только списки хеш-сумм

[Профиль] [ЛС]
Показать сообщения:    
Ответить на тему

Текущее время: Сегодня 22:22

Часовой пояс: GMT + 4



Вы не можете начинать темы
Вы не можете отвечать на сообщения
Вы не можете редактировать свои сообщения
Вы не можете удалять свои сообщения
Вы не можете голосовать в опросах
Вы не можете прикреплять файлы к сообщениям
Вы не можете скачивать файлы