Прикинемся полицейскими / Lеt\'s Вe Cоps (Люk Гpинфилд / Lukу GreеnfieId) [2О14, США, комедия, криминал, BDRip-AVC] Dub (iTunes) + ENG + Sub (Eng)

Ответить на тему
 
Автор Сообщение

user ®

Стаж: 7 лет 7 месяцев

Сообщений: 20008

Пост Пост: #1 от 15-Ноя-2014 06:05

[Цитировать]

Прикинемся полицейскими / Lеt's Вe Cоps- Страна: США
Жанр: комедия, криминал
Год выпуска: 2014
Продолжительность: 01:44:28
Перевод: Профессиональный (дублированный) iTunes
Cубтитры: английские
Оригинальная аудиодорожка: английская-Режиссер: Люk Гpинфилд / Luke Grеenfiеd
В ролях: Дэймон Уайанс мл., Джейк Джонсон, Роб Риггл, Нина Добрев, Джеймс ДАрси, Энди Гарсиа, Кигэн-Майкл Ки, Джон Лажуа, Том Мардиросян, Наташа Леггеро-Описание: Получив приглашение на костюмированную вечеринку, два нерадивых приятеля решают нарядиться полицейскими, и вдруг их популярность среди гостей подскакивает до максимума. На волне успеха парни продолжают игру. Но неожиданно псевдокопы оказываются впутанными в реальную криминальную историю, и теперь им придется применить свои фальшивые значки по полной.
-
-Качество видео: BDRip-AVC (Lets.Be.Cops.2014.1080p.BluRay.REMUX.AVC.DTS-HD.MA.5.1)
Формат видео: MKV
Видео: x.264, 1056x572, 3090 kbps, 23.976 fps
Аудио 1: AC3, 384 Kbps, 48000 Hz, 5.1 channels - iTunes
Аудио 2: AC3, 448 Kbps, 48000 Hz, 5.1 channels - Eng
Субтитры: SRT - английские ( 2 вида)
-Скриншоты Резервные скриншоты
-
MediaInfo/log
Format : Matroska
Format version : Version 4 / Version 2
File size : 2.86 GiB
Duration : 1h 44mn
Overall bit rate : 3 915 Kbps
Movie name : Типа копы / Let's Be Cops (2014) BDRip-AVC by RG Torrents.ru
Encoded date : UTC 2014-11-13 20:27:48
Writing application : mkvmerge v7.3.0 ('Nouages') 32bit built on Oct 22 2014 18:44:01
Writing library : libebml v1.3.0 + libmatroska v1.4.1
Cover : Yes
Video
ID : 1
Format : AVC
Format/Info : Advanced Video Codec
Format profile : High@L4.1
Format settings, CABAC : Yes
Format settings, ReFrames : 10 frames
Codec ID : V_MPEG4/ISO/AVC
Duration : 1h 44mn
Bit rate : 3 090 Kbps
Width : 1 056 pixels
Height : 572 pixels
Display aspect ratio : 1.85:1
Frame rate mode : Constant
Frame rate : 23.976 fps
Color space : YUV
Chroma subsampling : 4:2:0
Bit depth : 8 bits
Scan type : Progressive
Bits/(Pixel*Frame) : 0.213
Stream size : 2.19 GiB (77%)
Title : RG Torrents.ru
Writing library : x264 core 142 r2479 dd79a61
Encoding settings : cabac=1 / ref=10 / deblock=1:-2:-2 / analyse=0x3:0x133 / me=umh / subme=10 / psy=1 / psy_rd=1.00:0.00 / mixed_ref=1 / me_range=32 / chroma_me=1 / trellis=2 / 8x8dct=1 / cqm=0 / deadzone=21,11 / fast_pskip=0 / chroma_qp_offset=-2 / threads=6 / lookahead_threads=1 / sliced_threads=0 / nr=0 / decimate=1 / interlaced=0 / bluray_compat=0 / constrained_intra=0 / bframes=8 / b_pyramid=2 / b_adapt=2 / b_bias=0 / direct=3 / weightb=1 / open_gop=0 / weightp=2 / keyint=240 / keyint_min=23 / scenecut=40 / intra_refresh=0 / rc_lookahead=60 / rc=2pass / mbtree=0 / bitrate=3090 / ratetol=1.0 / qcomp=0.60 / qpmin=0 / qpmax=69 / qpstep=4 / cplxblur=20.0 / qblur=0.5 / vbv_maxrate=20000 / vbv_bufsize=20000 / nal_hrd=none / filler=0 / ip_ratio=1.25 / pb_ratio=1.27 / aq=2:1.00
Language : English
Default : Yes
Forced : No
Audio #1
ID : 2
Format : AC-3
Format/Info : Audio Coding 3
Mode extension : CM (complete main)
Format settings, Endianness : Big
Codec ID : A_AC3
Duration : 1h 44mn
Bit rate mode : Constant
Bit rate : 384 Kbps
Channel(s) : 6 channels
Channel positions : Front: L C R, Side: L R, LFE
Sampling rate : 48.0 KHz
Bit depth : 16 bits
Compression mode : Lossy
Stream size : 287 MiB (10%)
Title : iTunes
Language : Russian
Default : Yes
Forced : No
Audio #2
ID : 3
Format : AC-3
Format/Info : Audio Coding 3
Mode extension : CM (complete main)
Format settings, Endianness : Big
Codec ID : A_AC3
Duration : 1h 44mn
Bit rate mode : Constant
Bit rate : 448 Kbps
Channel(s) : 6 channels
Channel positions : Front: L C R, Side: L R, LFE
Sampling rate : 48.0 KHz
Bit depth : 16 bits
Compression mode : Lossy
Stream size : 335 MiB (11%)
Language : English
Default : No
Forced : No
Text #1
ID : 4
Format : UTF-8
Codec ID : S_TEXT/UTF8
Codec ID/Info : UTF-8 Plain Text
Language : English
Default : No
Forced : No
Text #2
ID : 5
Format : UTF-8
Codec ID : S_TEXT/UTF8
Codec ID/Info : UTF-8 Plain Text
Title : SDH
Language : English
Default : No
Forced : No
Menu
00:00:00.000 : :Chapter 01
00:01:58.785 : :Chapter 02
00:03:34.797 : :Chapter 03
00:07:24.652 : :Chapter 04
00:11:11.629 : :Chapter 05
00:13:44.281 : :Chapter 06
00:17:39.099 : :Chapter 07
00:19:59.656 : :Chapter 08
00:23:06.134 : :Chapter 09
00:26:43.602 : :Chapter 10
00:31:26.926 : :Chapter 11
00:33:19.664 : :Chapter 12
00:39:32.203 : :Chapter 13
00:41:30.654 : :Chapter 14
00:44:34.421 : :Chapter 15
00:48:47.925 : :Chapter 16
00:52:29.146 : :Chapter 17
00:54:43.321 : :Chapter 18
00:59:54.591 : :Chapter 19
01:02:48.014 : :Chapter 20
01:06:55.594 : :Chapter 21
01:09:15.734 : :Chapter 22
01:10:45.241 : :Chapter 23
01:14:02.688 : :Chapter 24
01:18:00.175 : :Chapter 25
01:21:58.663 : :Chapter 26
01:24:54.923 : :Chapter 27
01:28:35.393 : :Chapter 28
01:30:09.570 : :Chapter 29
01:33:38.029 : :Chapter 30
01:37:09.448 : :Chapter 31
01:38:32.114 : :Chapter 32
log
---[Information] [27.10.2014 3:20:26] x264 [info]: frame I:1887 Avg QP:15.77 size: 88813
---[Information] [27.10.2014 3:20:26] x264 [info]: frame P:35831 Avg QP:17.70 size: 30664
---[Information] [27.10.2014 3:20:26] x264 [info]: frame B:112571 Avg QP:19.71 size: 10189
---[Information] [27.10.2014 3:20:26] x264 [info]: consecutive B-frames: 3.3% 4.0% 9.3% 27.3% 20.6% 29.1% 3.9% 1.4% 1.0%
---[Information] [27.10.2014 3:20:26] x264 [info]: mb I I16..4: 4.2% 74.2% 21.5%
---[Information] [27.10.2014 3:20:26] x264 [info]: mb P I16..4: 0.8% 8.6% 1.7% P16..4: 38.4% 25.6% 17.4% 0.8% 0.2% skip: 6.6%
---[Information] [27.10.2014 3:20:26] x264 [info]: mb B I16..4: 0.1% 0.5% 0.2% B16..8: 40.0% 12.7% 3.7% direct: 6.3% skip:36.6% L0:43.1% L1:43.7% BI:13.2%
---[Information] [27.10.2014 3:20:26] x264 [info]: 8x8 transform intra:75.8% inter:59.3%
---[Information] [27.10.2014 3:20:26] x264 [info]: direct mvs spatial:98.1% temporal:1.9%
---[Information] [27.10.2014 3:20:26] x264 [info]: coded y,uvDC,uvAC intra: 88.9% 88.5% 74.8% inter: 25.7% 27.0% 12.4%
---[Information] [27.10.2014 3:20:26] x264 [info]: i16 v,h,dc,p: 31% 16% 7% 46%
---[Information] [27.10.2014 3:20:26] x264 [info]: i8 v,h,dc,ddl,ddr,vr,hd,vl,hu: 11% 10% 6% 9% 13% 13% 13% 12% 12%
---[Information] [27.10.2014 3:20:26] x264 [info]: i4 v,h,dc,ddl,ddr,vr,hd,vl,hu: 11% 9% 3% 10% 15% 14% 13% 11% 12%
---[Information] [27.10.2014 3:20:26] x264 [info]: i8c dc,h,v,p: 44% 21% 17% 17%
---[Information] [27.10.2014 3:20:26] x264 [info]: Weighted P-Frames: Y:2.3% UV:1.3%
---[Information] [27.10.2014 3:20:26] x264 [info]: ref P L0: 47.1% 9.9% 17.7% 7.1% 6.0% 3.6% 3.3% 1.8% 1.7% 1.5% 0.3% 0.0%
---[Information] [27.10.2014 3:20:26] x264 [info]: ref B L0: 71.3% 12.8% 5.6% 3.4% 3.0% 1.7% 1.3% 0.6% 0.3%
---[Information] [27.10.2014 3:20:26] x264 [info]: ref B L1: 93.0% 7.0%
---[Information] [27.10.2014 3:20:26] x264 [info]: SSIM Mean Y:0.9830354 (17.705db)
---[Information] [27.10.2014 3:20:26] x264 [info]: kb/s:3079.94
---[Information] [27.10.2014 3:20:26] encoded 150289 frames, 4.68 fps, 3079.94 kb/s

-
Ошибки в фильме
  • Когда герои приехали на слежку за мафиози, они были на красной машине. А в погоню за грузовиком они поехали уже на полицейской машине.
  • В фильме демонстрируется штурмовая винтовка Heckler & Koch G36, которая якобы похищена из департамента полиции Лос-Анджелеса. Только два отделения полиции в США используют такие винтовки в Балтиморе и полиция Капитолия. Крайне маловероятно, что эта винтовка была в распоряжении департамента полиции Лос-Анджелеса.
  • Когда персонаж Джейка Джонсона практикует технику самообороны с ребенком, на его одежде видны сержантские нашивки. В следующей сцене, во время патрулирования, этих нашивок уже нет. А до сержанта он «повышается» во время патрулирования в следующий день.
  • Многие сотрудники полиции в фильме держат оружие, прижав палец к спусковому крючку, эту ошибку не допустит ни один реальный сотрудник правоохранительных органов.
  • Когда Райан в первый раз играет в футбол с детьми, его толстовка вывернута наизнанку. Спустя некоторое время она уже вывернута нормально.
  • Несколько раз в течение фильма герои стреляют из огнестрельного оружия в маленьких закрытых помещениях, не имея средств защиты для органов слуха. Это должно было бы вызвать у них потерю слуха.
Скачать

Скачать торрент!

Как скачивать? · Что такое торрент? · Рейтинг и ограничения

Сайт не распространяет и не хранит электронные версии произведений, а лишь предоставляет доступ к создаваемому пользователями каталогу ссылок на торрент-файлы, которые содержат только списки хеш-сумм

[Профиль] [ЛС]
Показать сообщения:    
Ответить на тему

Текущее время: Сегодня 06:01

Часовой пояс: GMT + 4



Вы не можете начинать темы
Вы не можете отвечать на сообщения
Вы не можете редактировать свои сообщения
Вы не можете удалять свои сообщения
Вы не можете голосовать в опросах
Вы не можете прикреплять файлы к сообщениям
Вы не можете скачивать файлы