Рандеву со смертью / Rendezvous with Death (Сун Чунг / Sun Chung) [1980, Гонконг, боевые искусства, DVDRip] AVO (Кузнецов)

Ответить на тему
 
Автор Сообщение

user ®

Стаж: 13 лет

Сообщений: 15071

Пост Пост: #1 от 14-Ноя-2014 20:35

[Цитировать]

Рандеву со смертью / Rendezvous with Death
Страна: Гонконг
Жанр: Боевые искусства
Год выпуска: 1980
Продолжительность: 01:38:07
Перевод: Авторский (одноголосый закадровый) [Кузнецов]
Оригинальная аудиодорожка: нет
Cубтитры: нет
Режиссер:Сун Чунг / Sun Chung
В ролях:Вонг Ю, Ку Фенг, Ло Лье, Чен Кван Тай, Чан Шен, Танг Чинг
Описание: Фильм о меченосце который защищая сундук с золотом пускается в опасное путешествие.
Релиз:
Сэмпл
Качество: DVDRip
Контейнер: AVI
Видео: 672x288 (2.33:1), 23.976 fps, XviD build 50 ~919 kbps avg, 0.20 bit/pixel
Аудио:48 kHz, MPEG Layer 3, 2 ch, ~128.00 kbps avg

MI
General
Complete name : C:\Users\Вячеслав\Downloads\Рандеву со смертью_DVDRip_700_Некул.avi
Format : AVI
Format/Info : Audio Video Interleave
File size : 743 MiB
Duration : 1h 38mn
Overall bit rate : 1 057 Kbps
Writing application : VirtualDubMod 1.5.10.3 | www.virtualdub-fr.org || (build 2550/release)
Writing library : VirtualDubMod build 2550/release
Video
ID : 0
Format : MPEG-4 Visual
Format profile : Advanced Simple@L5
Format settings, BVOP : 2
Format settings, QPel : No
Format settings, GMC : No warppoints
Format settings, Matrix : Default (MPEG)
Codec ID : DX50
Codec ID/Hint : DivX 5
Duration : 1h 38mn
Bit rate : 920 Kbps
Width : 672 pixels
Height : 288 pixels
Display aspect ratio : 2.35:1
Frame rate : 23.976 fps
Color space : YUV
Chroma subsampling : 4:2:0
Bit depth : 8 bits
Scan type : Progressive
Compression mode : Lossy
Bits/(Pixel*Frame) : 0.198
Stream size : 647 MiB (87%)
Writing library : XviD 1.2.1 (UTC 2008-12-04)
Audio
ID : 1
Format : MPEG Audio
Format version : Version 1
Format profile : Layer 3
Codec ID : 55
Codec ID/Hint : MP3
Duration : 1h 38mn
Bit rate mode : Constant
Bit rate : 128 Kbps
Channel(s) : 2 channels
Sampling rate : 48.0 KHz
Compression mode : Lossy
Stream size : 90.0 MiB (12%)
Alignment : Aligned on interleaves
Interleave, duration : 42 ms (1.00 video frame)
Interleave, preload duration : 504 ms
Writing library : LAME3.99r
Encoding settings : -m s -V 4 -q 2 -lowpass 17 -b 128
Скриншоты
Скачать

Скачать торрент! Рандеву со смертью / Rendezvous with Death (Сун Чунг / Sun Chung) [1980, Гонконг, боевые искусства, DVDRip] AVO (Кузнецов)

Как скачивать? · Что такое торрент? · Рейтинг и ограничения

Сайт не распространяет и не хранит электронные версии произведений, а лишь предоставляет доступ к создаваемому пользователями каталогу ссылок на торрент-файлы, которые содержат только списки хеш-сумм

[Профиль] [ЛС]
Показать сообщения:    
Ответить на тему

Текущее время: Сегодня 21:04

Часовой пояс: GMT + 4



Вы не можете начинать темы
Вы не можете отвечать на сообщения
Вы не можете редактировать свои сообщения
Вы не можете удалять свои сообщения
Вы не можете голосовать в опросах
Вы не можете прикреплять файлы к сообщениям
Вы не можете скачивать файлы