Стерео / Stereo (Максимилиан Эрленвайн / Maximilian Erlenwein) [2014, Германия, триллер, HDRip] DVO (2D)

Ответить на тему
 
Автор Сообщение

user ®

Стаж: 7 лет 7 месяцев

Сообщений: 20008

Пост Пост: #1 от 14-Ноя-2014 20:35

[Цитировать]

Стерео / Stereo
Страна: Германия
Жанр: триллер
Год выпуска: 2014
Продолжительность: 01:37:40
Перевод: Любительский (двухголосый закадровый) 2D по переводу chup
Cубтитры: нет
Оригинальная аудиодорожка: нет
Режиссер: Максимилиан Эрленвайн / Maximilian Erlenwein
В ролях: Мориц Бляйбтрой, Юрген Фогель, Петра Шмидт-Шаллер, Георг Фридрих, Райнер Бок, Хакан Кан, Фабиан Хинрихс, Юрген Хольц, Николь Маришка
Описание: В жизни автослесаря Эрика появляется таинственный незнакомец — грубиян и провокатор. Но он знает что-то о прошлом Эрика, что сам Эрик очень хочет забыть.
Доп. описание: Поселившийся в уютном сельском уголке Эрик надеется на тихую жизнь и спокойную работу в своей мастерской по ремонту мотоциклов. Свободное время он проводит со своей новой подругой Юлией и их маленькой дочкой. Но идеальная жизнь Эрика рушится после появления таинственного незнакомца в капюшоне. Этот человек грубо врывается в жизнь Эрика буквально доводя его до безумия. Но когда еще более зловещие личности начинают угрожать Эрику, ему не остается ничего другого, как довериться незнакомцу...

Сэмпл: http://multi-up.com/1013048
Качество видео: HDRip
Формат видео: AVI
Видео: 720x304 (2.37:1), 24 fps, XviD build 50 ~1576 kbps avg, 0.30 bit/pixel
Аудио: 48 kHz, AC3 Dolby Digital, 3/2 (L,C,R,l,r) + LFE ch, ~448 kbps
MediaInfo
General
Complete name : C:\Users\Вика\Desktop\Stеrео.2014.HDRip.avi
Format : AVI
Format/Info : Audio Video Interleave
File size : 1.39 GiB
Duration : 1h 37mn
Overall bit rate : 2 034 Kbps
Writing application : VirtualDubMod 1.5.10.2 (build 2542/release)
Writing library : VirtualDubMod build 2542/release
Video
ID : 0
Format : MPEG-4 Visual
Format profile : Advanced Simple@L5
Format settings, BVOP : Yes
Format settings, QPel : No
Format settings, GMC : No warppoints
Format settings, Matrix : Default (H.263)
Codec ID : XVID
Codec ID/Hint : XviD
Duration : 1h 37mn
Bit rate : 1 576 Kbps
Width : 720 pixels
Height : 304 pixels
Display aspect ratio : 2.35:1
Frame rate : 24.000 fps
Color space : YUV
Chroma subsampling : 4:2:0
Bit depth : 8 bits
Scan type : Progressive
Compression mode : Lossy
Bits/(Pixel*Frame) : 0.300
Stream size : 1.08 GiB (78%)
Writing library : XviD 1.2.1 (UTC 2008-12-04)
Audio
ID : 1
Format : AC-3
Format/Info : Audio Coding 3
Mode extension : CM (complete main)
Format settings, Endianness : Big
Codec ID : 2000
Duration : 1h 37mn
Bit rate mode : Constant
Bit rate : 448 Kbps
Channel count : 6 channels
Channel positions : Front: L C R, Side: L R, LFE
Sampling rate : 48.0 KHz
Bit depth : 16 bits
Compression mode : Lossy
Stream size : 313 MiB (22%)
Alignment : Split accross interleaves
Interleave, duration : 42 ms (1.00 video frame)
Interleave, preload duration : 500 ms
Скриншоты
Скачать

Скачать торрент!

Как скачивать? · Что такое торрент? · Рейтинг и ограничения

Сайт не распространяет и не хранит электронные версии произведений, а лишь предоставляет доступ к создаваемому пользователями каталогу ссылок на торрент-файлы, которые содержат только списки хеш-сумм

[Профиль] [ЛС]
Показать сообщения:    
Ответить на тему

Текущее время: Сегодня 10:07

Часовой пояс: GMT + 4



Вы не можете начинать темы
Вы не можете отвечать на сообщения
Вы не можете редактировать свои сообщения
Вы не можете удалять свои сообщения
Вы не можете голосовать в опросах
Вы не можете прикреплять файлы к сообщениям
Вы не можете скачивать файлы