Одна ночь в Осло / Ночь на 17 мая / Natt til 17 (Эйрик Свенссон / Eirik Svensson) [2014, норвегия, драма, DVDRip-AVC] VO (Datynet)

Ответить на тему
 
Автор Сообщение

user ®

Стаж: 7 лет 7 месяцев

Сообщений: 20008

Пост Пост: #1 от 13-Ноя-2014 13:25

[Цитировать]

Одна ночь в Осло / Ночь на 17 мая / Natt til 17
Страна: Норвегия
Жанр: драма
Год выпуска: 2014
Продолжительность: 01:20:06
Перевод: Одноголосый закадровый (Datynet)
Cубтитры: нет
Режиссер: Эйрик Свенссон / Eirik Svensson
В ролях: Теа Локнис, Сирад Абди, Бутхан Ахмед, Мохаммед Алгхоул, Андреа Ситара Гран, Фердинанд Фальсен Хиис, Каан Козанли, Нора Тильдум Лунёэ
Описание: Один день и одна ночь из жизни компании подростков в современной, этнически разношерстной Норвегии. Приближается государственный праздник - День Независимости. Родители Теа уехали за город, и она решает устроить вечеринку, созвав всех друзей, знакомых и одноклассников. Естественно, все пойдет не так, как все хотели...
Доп. информация: Все роли в фильме играют реальные школьники, которым на момент сьемок было 15 - 16 лет. В общей сложности, в кастинге на фильм приняло участие свыше тысячи подростков со всей Норвегии. Примерно половина сцен и диалогов в фильме - импровизация актеров. Режиссер просто предлагал им вести себя по принципу "я в данных обстоятельствах".
Сэмпл
Перевод: М. Васильев
Озвучил: Datynet
Рип и постер предоставлены ВК группой СКАНДИНАВСКИЙ КАЛЕЙДОСКОП
Качество видео: DVDRip-AVC
Формат видео: MKV
Видео: 2213 Kbps, 720x428@1024х428 (2.40:1) 25 000 fps, AVC
Аудио: 192 Kbps, 44.1 KHz, 2 ch, MPEG Audio MP 3
MediaInfo
General
Unique ID : 228464768164642879866144094798103950509 (0xABE0B6BD351EC0EFAE6E21AAA09FB4AD)
Complete name : C:\Users\Владелец\Downloads\Natt til 17.2014.mkv
Format : Matroska
Format version : Version 4 / Version 2
File size : 1.33 GiB
Duration : 1h 20mn
Overall bit rate : 2 376 Kbps
Encoded date : UTC 2014-11-07 12:12:39
Writing application : mkvmerge v6.3.0 ('You can't stop me!') built on Jun 28 2013 20:09:41
Writing library : libebml v1.3.0 + libmatroska v1.4.0
Video
ID : 1
Format : AVC
Format/Info : Advanced Video Codec
Format profile : High@L3.1
Format settings, CABAC : Yes
Format settings, ReFrames : 9 frames
Codec ID : V_MPEG4/ISO/AVC
Duration : 1h 20mn
Bit rate : 2 213 Kbps
Width : 720 pixels
Height : 428 pixels
Display aspect ratio : 2.40:1
Frame rate mode : Constant
Frame rate : 25.000 fps
Color space : YUV
Chroma subsampling : 4:2:0
Bit depth : 8 bits
Scan type : Progressive
Bits/(Pixel*Frame) : 0.287
Stream size : 1.20 GiB (90%)
Writing library : x264 core 130 r2273 b3065e6
Encoding settings : cabac=1 / ref=9 / deblock=1:-3:-3 / analyse=0x3:0x133 / me=umh / subme=9 / psy=1 / psy_rd=1.00:0.00 / mixed_ref=1 / me_range=24 / chroma_me=1 / trellis=2 / 8x8dct=1 / cqm=0 / deadzone=21,11 / fast_pskip=0 / chroma_qp_offset=-2 / threads=6 / lookahead_threads=1 / sliced_threads=0 / nr=0 / decimate=1 / interlaced=0 / bluray_compat=0 / constrained_intra=0 / bframes=6 / b_pyramid=2 / b_adapt=2 / b_bias=0 / direct=3 / weightb=1 / open_gop=0 / weightp=2 / keyint=250 / keyint_min=25 / scenecut=40 / intra_refresh=0 / rc_lookahead=60 / rc=abr / mbtree=1 / bitrate=2213 / ratetol=1.0 / qcomp=0.60 / qpmin=0 / qpmax=69 / qpstep=4 / ip_ratio=1.40 / aq=2:1.00
Language : English
Default : Yes
Forced : No
Color primaries : BT.601 PAL
Transfer characteristics : BT.709
Matrix coefficients : BT.601
Audio
ID : 2
Format : MPEG Audio
Format version : Version 1
Format profile : Layer 3
Codec ID : A_MPEG/L3
Codec ID/Hint : MP3
Duration : 1h 20mn
Bit rate mode : Constant
Bit rate : 192 Kbps
Channel(s) : 2 channels
Sampling rate : 44.1 KHz
Compression mode : Lossy
Stream size : 110 MiB (8%)
Default : Yes
Forced : No
Menu
00:00:00.000 : en:Chapter 1
00:10:01.920 : en:Chapter 2
00:20:00.000 : en:Chapter 3
00:29:39.840 : en:Chapter 4
00:39:58.080 : en:Chapter 5
00:50:22.560 : en:Chapter 6
01:00:01.440 : en:Chapter 7
01:10:01.440 : en:Chapter 8
01:16:51.360 : en:Chapter 9
Скриншот c названием фильма Скриншоты
Скачать

Скачать торрент!

Как скачивать? · Что такое торрент? · Рейтинг и ограничения

Сайт не распространяет и не хранит электронные версии произведений, а лишь предоставляет доступ к создаваемому пользователями каталогу ссылок на торрент-файлы, которые содержат только списки хеш-сумм

[Профиль] [ЛС]
Показать сообщения:    
Ответить на тему

Текущее время: Сегодня 00:12

Часовой пояс: GMT + 4



Вы не можете начинать темы
Вы не можете отвечать на сообщения
Вы не можете редактировать свои сообщения
Вы не можете удалять свои сообщения
Вы не можете голосовать в опросах
Вы не можете прикреплять файлы к сообщениям
Вы не можете скачивать файлы