Станция "Небеса" / Heaven Station / Tengoku no eki (Масанобу Дэмэ / Masanobu Deme) [1984, Япония, драма, DVDRip] (Rus) (Eng) + Sub

Ответить на тему
 
Автор Сообщение

user ®

Стаж: 13 лет

Сообщений: 15071

Пост Пост: #1 от 13-Ноя-2014 02:25

[Цитировать]

Станция "Небеса" / Heaven Station / Tengoku no eki / 天国の駅
Страна: Япония
Жанр: драма
Год выпуска: 1984
Продолжительность: 02:13:45
Перевод 1: Субтитры русские - дед_сто_лет©
Перевод 2: Субтитры английские
Оригинальная аудиодорожка: японский
Режиссер: [url=http://***/forum/tracker.php?nm=Masanobu%20Deme]Масанобу Дэмэ / Masanobu Deme[/url]
В ролях: Саюри Ёсинага, Тосиюки Нисида, Томокадзу Миура, Каёко Сираиси, Тэцуро Тамба, Мидори Ямамото, Кимиэ Сингёдзи, Хирохиса Наката, Нобуёси Араки, Тацуя Камэяма, Тосиэ Кокабу, Тосидзо Кудо, Ацуо Накамура, Теруо Симидзу, Гозо Сома, Тадаси Такацуки
Описание: Каё Хаясиба осуждена на смерть за убийство мужа. Детектив Идзава распутывает длинный клубок, сотканный из страсти, жестокости, насилия, обмана, ревности и жажды любви. Эта кровавая драма наполнена настоящими чувствами, которые редко встретишь в японских фильмах 80-х годов.©
+18
> > > > >
Качество видео: DVDRip
Формат видео: AVI
Видео: 624x368 (1.70:1), 23.976 fps, XviD build 50 ~1370 kbps avg, 0.25 bit/pixel
Аудио: 48 kHz, AC3 Dolby Digital, 2/0 (L,R) ch, ~192 kbps
Формат субтитров: softsub (SRT)
Доп. информация о субтитрах: дед_сто_лет
Пример субтитров
525
00:51:07,798 --> 00:51:09,243
Госпожа.
526
00:51:13,237 --> 00:51:16,741
Госпожа, с возвращением.
527
00:51:18,509 --> 00:51:19,886
А где мой муж?
528
00:51:20,077 --> 00:51:22,580
Он на собрании профсоюза.
529
00:51:22,780 --> 00:51:24,191
Он прислал меня встретить вас.
530
00:51:24,415 --> 00:51:25,553
Давайте.
531
00:51:27,985 --> 00:51:28,929
Идем.
532
00:51:33,791 --> 00:51:35,737
Он не пришел.
533
00:51:37,995 --> 00:51:39,872
Он прислал машину.
534
00:52:08,125 --> 00:52:12,767
С возвращением.
535
00:52:14,265 --> 00:52:16,609
Добро пожаловать.
536
00:52:27,111 --> 00:52:28,351
Это что?
537
00:52:28,546 --> 00:52:30,457
Это наша новая...
538
00:52:30,648 --> 00:52:31,991
Я не тебя спрашиваю.
539
00:52:34,752 --> 00:52:36,231
Это жена хозяина.
540
00:52:36,687 --> 00:52:38,166
Меня зовут Каё Хаясиба.
541
00:52:39,924 --> 00:52:41,267
Что ты здесь делаешь?
542
00:52:42,660 --> 00:52:46,870
Показываю,
как ткут узорчатый шелк.
543
00:52:49,633 --> 00:52:51,738
Госпожа...
544
00:52:51,935 --> 00:52:53,608
Остановитесь!
545
00:52:58,242 --> 00:53:00,244
Табо!
546
00:53:00,744 --> 00:53:02,246
Помогите!
547
00:53:02,813 --> 00:53:03,587
Госпожа!
MediaInfo
General
Complete name : C:\Torrents\[ASIA]\Heaven.Station(1984)Masanobu.Deme\Heaven.Station(1984)Masanobu.Deme.avi
Format : AVI
Format/Info : Audio Video Interleave
File size : 1.47 GiB
Duration : 2h 13mn
Overall bit rate : 1 568 Kbps
Writing application : VirtualDubMod 1.5.4.1 (build 2178/release)
Writing library : VirtualDubMod build 2178/release
Video
ID : 0
Format : MPEG-4 Visual
Format profile : Advanced Simple@L5
Format settings, BVOP : 1
Format settings, QPel : No
Format settings, GMC : No warppoints
Format settings, Matrix : Custom
Codec ID : XVID
Codec ID/Hint : XviD
Duration : 2h 13mn
Bit rate : 1 370 Kbps
Width : 624 pixels
Height : 368 pixels
Display aspect ratio : 1.696
Frame rate : 23.976 fps
Color space : YUV
Chroma subsampling : 4:2:0
Bit depth : 8 bits
Scan type : Progressive
Compression mode : Lossy
Bits/(Pixel*Frame) : 0.249
Stream size : 1.28 GiB (87%)
Writing library : XviD 1.2.1 (UTC 2008-12-04)
Audio
ID : 1
Format : AC-3
Format/Info : Audio Coding 3
Mode extension : CM (complete main)
Codec ID : 2000
Duration : 2h 13mn
Bit rate mode : Constant
Bit rate : 192 Kbps
Channel(s) : 2 channels
Channel positions : Front: L R
Sampling rate : 48.0 KHz
Bit depth : 16 bits
Compression mode : Lossy
Stream size : 184 MiB (12%)
Alignment : Split accross interleaves
Interleave, duration : 96 ms (2.30 video frames)
Interleave, preload duration : 96 ms
Language : Japanese
Скриншот c названием фильма Скриншоты
Скачать

Скачать торрент! Станция "Небеса" / Heaven Station / Tengoku no eki (Масанобу Дэмэ / Masanobu Deme) [1984, Япония, драма, DVDRip] (Rus) (Eng) + Sub

Как скачивать? · Что такое торрент? · Рейтинг и ограничения

Сайт не распространяет и не хранит электронные версии произведений, а лишь предоставляет доступ к создаваемому пользователями каталогу ссылок на торрент-файлы, которые содержат только списки хеш-сумм

[Профиль] [ЛС]
Показать сообщения:    
Ответить на тему

Текущее время: Сегодня 17:44

Часовой пояс: GMT + 4



Вы не можете начинать темы
Вы не можете отвечать на сообщения
Вы не можете редактировать свои сообщения
Вы не можете удалять свои сообщения
Вы не можете голосовать в опросах
Вы не можете прикреплять файлы к сообщениям
Вы не можете скачивать файлы