Планета обезьян: Революция / Dawn of the Planet of the Apes (Мэтт Ривз / Matt Reeves) [2014, США, Фантастика, боевик, BDRip-AVC] Dub (Blu-ray CEE) + Dub (Ukr) + Sub Rus, Eng, Ukr + Original Eng

Ответить на тему
 
Автор Сообщение

user ®

Стаж: 7 лет 7 месяцев

Сообщений: 20008

Пост Пост: #1 от 13-Ноя-2014 02:25

[Цитировать]

Планета обезьян: Революция / Dawn of the Planet of the Apes«Молитесь за мир, готовьтесь к войне»- Страна: США
Жанр: Фантастика, боевик
Год выпуска: 2014
Продолжительность: 02:10:24
Перевод: Профессиональный (дублированный) Blu-ray CEE
Перевод 2: Профессиональный (дублированный) Ukr Отдельно
Cубтитры: Rus, Eng, Ukr (Forced, FULL)
Оригинальная аудиодорожка: английский
Режиссер: Мэтт Ривз / Matt Reeves
В ролях: Энди Серкис, Джейсон Кларк, Гари Олдман, Кери Рассел, Тоби Кеббелл, Коди, Смит-МакФи, Кирк Асеведо, Ник Тёрстон, Терри Нотари, Карин Коновал-ОписаниеЧисленность генетически модифицированных обезьян, возглавляемых Цезарем, продолжает увеличиваться, но обезьянам угрожают люди, которым удалось выжить во время ужасной эпидемии десятилетней давности. Поначалу между соперниками устанавливается хрупкий мир, но он оказывается недолговечным. Обезьяны и люди находятся на грани войны, в ходе которой станет понятно, кто из них в будущем станет безраздельно править планетой.-Сэмпл

IMDb: 7.90 (144 781)
Качество видео: BDRip-AVC [Dawn.of.the.Planet.of.the.Apes.2014.BD.NiP HDCLUB]
Формат видео: MKV
Видео: AVC 1629 Kbps 960 x 520 (1.846) 23.976 fps
Аудио: AC-3 384 Kbps 6 channels, 48.0 KHz DUB Blu-ray CEE
Аудио 2: AC-3 384 EX Kbps 6 channels, 48.0 KHz Eng
Аудио 3: AC-3 384 Kbps 6 channels, 48.0 KHz Ukr Отдельно
Формат субтитров: softsub (SRT)
MediaInfo | Log
Log
x264 [info]: frame I:1312 Avg QP:15.78 size: 65972
x264 [info]: frame P:38226 Avg QP:18.17 size: 19854
x264 [info]: frame B:148056 Avg QP:20.55 size: 5360
x264 [info]: consecutive B-frames: 1.4% 1.8% 6.8% 21.7% 16.7% 33.7% 6.8% 4.4% 1.6% 0.9% 0.9% 2.2% 1.2%
x264 [info]: mb I I16..4: 6.6% 76.9% 16.5%
x264 [info]: mb P I16..4: 0.3% 6.3% 0.8% P16..4: 31.6% 36.0% 13.8% 2.0% 0.2% skip: 8.8%
x264 [info]: mb B I16..4: 0.0% 0.5% 0.1% B16..8: 34.9% 18.1% 2.6% direct: 3.4% skip:40.4% L0:43.9% L1:46.8% BI: 9.3%
x264 [info]: 8x8 transform intra:82.5% inter:62.2%
x264 [info]: coded y,uvDC,uvAC intra: 90.8% 88.8% 70.0% inter: 16.0% 14.2% 3.2%
x264 [info]: i16 v,h,dc,p: 22% 11% 10% 57%
x264 [info]: i8 v,h,dc,ddl,ddr,vr,hd,vl,hu: 10% 6% 6% 10% 15% 14% 14% 12% 13%
x264 [info]: i4 v,h,dc,ddl,ddr,vr,hd,vl,hu: 12% 6% 4% 10% 15% 14% 14% 11% 13%
x264 [info]: i8c dc,h,v,p: 45% 21% 17% 17%
x264 [info]: Weighted P-Frames: Y:8.7% UV:4.1%
x264 [info]: ref P L0: 45.0% 9.1% 16.5% 7.1% 5.9% 4.1% 3.7% 2.1% 1.9% 1.5% 1.4% 1.3% 0.2% 0.0%
x264 [info]: ref B L0: 70.6% 11.5% 5.8% 3.6% 2.4% 1.8% 1.5% 1.1% 0.9% 0.4% 0.2%
x264 [info]: ref B L1: 92.0% 8.0%
x264 [info]: kb/s:1675.85
x264 [total]: encoded 187594 frames, 12.29 fps, 1675.85 kb/s, duration 4:14:26.52
Format : Matroska
Format version : Version 4 / Version 2
File size : 2.23 GiB
Duration : 2h 10mn
Overall bit rate : 2 446 Kbps
Encoded date : UTC 2014-11-12 14:04:54
Writing application : mkvmerge v6.7.0 ('Back to the Ground') 32bit built on Jan 8 2014 15:03:17
Writing library : libebml v1.3.0 + libmatroska v1.4.1
Video
ID : 1
Format : AVC
Format/Info : Advanced Video Codec
Format profile : High@L4.1
Format settings, CABAC : Yes
Format settings, ReFrames : 12 frames
Codec ID : V_MPEG4/ISO/AVC
Duration : 2h 10mn
Bit rate : 1 629 Kbps
Width : 960 pixels
Height : 520 pixels
Display aspect ratio : 1.85:1
Frame rate mode : Constant
Frame rate : 23.976 fps
Color space : YUV
Chroma subsampling : 4:2:0
Bit depth : 8 bits
Scan type : Progressive
Bits/(Pixel*Frame) : 0.136
Stream size : 1.48 GiB (67%)
Writing library : x264 core 142 r2453kMod ea0ca51
Encoding settings : cabac=1 / ref=12 / deblock=1:-2:-1 / analyse=0x3:0x133 / me=umh / subme=11 / psy=1 / fade_compensate=0.00 / psy_rd=1.00:0.05 / mixed_ref=1 / me_range=32 / chroma_me=1 / trellis=2 / 8x8dct=1 / cqm=0 / deadzone=21,11 / fast_pskip=0 / chroma_qp_offset=-3 / threads=12 / lookahead_threads=3 / sliced_threads=0 / nr=0 / decimate=1 / interlaced=0 / bluray_compat=0 / constrained_intra=0 / fgo=0 / bframes=12 / b_pyramid=2 / b_adapt=2 / b_bias=0 / direct=1 / weightb=1 / open_gop=0 / weightp=2 / keyint=250 / keyint_min=23 / scenecut=40 / intra_refresh=0 / rc_lookahead=60 / rc=crf / mbtree=0 / crf=19.1000 / qcomp=0.60 / qpmin=0 / qpmax=69 / qpstep=4 / vbv_maxrate=50000 / vbv_bufsize=62500 / crf_max=0.0 / nal_hrd=none / filler=0 / ip_ratio=1.40 / pb_ratio=1.30 / aq=3:0.90
Language : English
Default : Yes
Forced : No
Audio #1
ID : 2
Format : AC-3
Format/Info : Audio Coding 3
Mode extension : CM (complete main)
Format settings, Endianness : Big
Codec ID : A_AC3
Duration : 2h 10mn
Bit rate mode : Constant
Bit rate : 384 Kbps
Channel(s) : 6 channels
Channel positions : Front: L C R, Side: L R, LFE
Sampling rate : 48.0 KHz
Bit depth : 16 bits
Compression mode : Lossy
Stream size : 358 MiB (16%)
Title : DUB Blu-ray CEE
Language : Russian
Default : Yes
Forced : No
Audio #2
ID : 3
Format : AC-3
Format/Info : Audio Coding 3
Mode extension : CM (complete main)
Format settings, Endianness : Big
Codec ID : A_AC3
Duration : 2h 10mn
Bit rate mode : Constant
Bit rate : 384 Kbps
Channel(s) : 6 channels
Channel positions : Front: L C R, Side: L R, LFE
Sampling rate : 48.0 KHz
Bit depth : 16 bits
Compression mode : Lossy
Stream size : 358 MiB (16%)
Title : Original EX
Language : English
Default : No
Forced : No
Text #1
ID : 4
Format : UTF-8
Codec ID : S_TEXT/UTF8
Codec ID/Info : UTF-8 Plain Text
Title : Forced
Language : Russian
Default : Yes
Forced : No
Text #2
ID : 5
Format : UTF-8
Codec ID : S_TEXT/UTF8
Codec ID/Info : UTF-8 Plain Text
Title : FULL
Language : Russian
Default : No
Forced : No
Text #3
ID : 6
Format : UTF-8
Codec ID : S_TEXT/UTF8
Codec ID/Info : UTF-8 Plain Text
Title : Forced
Language : English
Default : No
Forced : No
Text #4
ID : 7
Format : UTF-8
Codec ID : S_TEXT/UTF8
Codec ID/Info : UTF-8 Plain Text
Title : FULL
Language : English
Default : No
Forced : No
Text #5
ID : 8
Format : UTF-8
Codec ID : S_TEXT/UTF8
Codec ID/Info : UTF-8 Plain Text
Title : Forced
Language : Ukrainian
Default : No
Forced : No
Text #6
ID : 9
Format : UTF-8
Codec ID : S_TEXT/UTF8
Codec ID/Info : UTF-8 Plain Text
Title : FULL
Language : Ukrainian
Default : No
Forced : No
Menu
00:00:00.000 : en:00:00:00.000
00:03:21.159 : en:00:03:21.159
00:07:34.913 : en:00:07:34.913
00:12:36.547 : en:00:12:36.547
00:16:23.566 : en:00:16:23.566
00:18:47.043 : en:00:18:47.043
00:21:52.478 : en:00:21:52.478
00:25:26.692 : en:00:25:26.692
00:29:45.867 : en:00:29:45.867
00:31:50.617 : en:00:31:50.617
00:36:43.743 : en:00:36:43.743
00:39:07.554 : en:00:39:07.554
00:40:57.163 : en:00:40:57.163
00:44:12.233 : en:00:44:12.233
00:48:11.138 : en:00:48:11.138
00:50:31.528 : en:00:50:31.528
00:53:48.016 : en:00:53:48.016
00:57:25.317 : en:00:57:25.317
01:01:18.466 : en:01:01:18.466
01:02:35.377 : en:01:02:35.377
01:04:24.069 : en:01:04:24.069
01:06:21.728 : en:01:06:21.728
01:09:31.334 : en:01:09:31.334
01:13:56.974 : en:01:13:56.974
01:17:17.925 : en:01:17:17.925
01:20:53.390 : en:01:20:53.390
01:23:28.754 : en:01:23:28.754
01:26:08.997 : en:01:26:08.997
01:28:19.252 : en:01:28:19.252
01:33:24.390 : en:01:33:24.390
01:35:53.122 : en:01:35:53.122
01:38:38.621 : en:01:38:38.621
01:40:42.536 : en:01:40:42.536
01:44:07.533 : en:01:44:07.533
01:46:05.317 : en:01:46:05.317
01:47:54.468 : en:01:47:54.468
01:52:13.769 : en:01:52:13.769
01:56:27.480 : en:01:56:27.480
02:00:31.015 : en:02:00:31.015
02:01:35.038 : en:02:01:35.038
Скриншоты
Скачать

Скачать торрент!

Как скачивать? · Что такое торрент? · Рейтинг и ограничения

Сайт не распространяет и не хранит электронные версии произведений, а лишь предоставляет доступ к создаваемому пользователями каталогу ссылок на торрент-файлы, которые содержат только списки хеш-сумм

[Профиль] [ЛС]
Показать сообщения:    
Ответить на тему

Текущее время: Сегодня 02:17

Часовой пояс: GMT + 4



Вы не можете начинать темы
Вы не можете отвечать на сообщения
Вы не можете редактировать свои сообщения
Вы не можете удалять свои сообщения
Вы не можете голосовать в опросах
Вы не можете прикреплять файлы к сообщениям
Вы не можете скачивать файлы