Во власти призрака / Mengejar Setan (Наято Фио Нуала / Nayato Fio Nuala) [2013, Индонезия, ужасы, DVDRip] DVO (2D)

Ответить на тему
 
Автор Сообщение

user ®

Стаж: 13 лет

Сообщений: 15071

Пост Пост: #1 от 12-Ноя-2014 16:55

[Цитировать]

Во власти призрака / Mengejar Setan
Страна: Индонезия
Жанр: ужасы
Год выпуска: 2013
Продолжительность: 01:11:13
Перевод: Любительский (двухголосый закадровый) 2D по переводу Хайду3
Cубтитры: нет
Оригинальная аудиодорожка: индонезийский
Режиссер: Наято Фио Нуала / Nayato Fio Nuala
В ролях: Эван Сандерс, Масайю Анастейша, Синта Дэви, Мунаджат Радитья, Донита, Айвен Леонардо, Яфи Теса Захара
Описание: Семейная пара с маленькой дочуркой переезжают на новое место и поселяются в старинном доме. Через какое-то время семью начинают беспокоить странные происшествия, а в женщину вселяется призрак.. И, как оказывается, арендодатель тщательно скрывает тайну этого страшного дома...
Доп. информация:

Сэмпл: http://multi-up.com/1012622
Качество видео: DVDRip
Формат видео: AVI
Видео: 720x304 (2.37:1), 25 fps, XviD build 50 ~2331 kbps avg, 0.43 bit/pixel
Аудио: 48 kHz, AC3 Dolby Digital, 2/0 (L,R) ch, ~192 kbps Russian
Аудио 2: 48 kHz, AC3 Dolby Digital, 2/0 (L,R) ch, ~192 kbps Indonesian
MediaInfo
General
Complete name : C:\Users\Вика\Desktop\Mеngеjаr.Sеtаn.2013.DVDRip.avi
Format : AVI
Format/Info : Audio Video Interleave
File size : 1.36 GiB
Duration : 1h 11mn
Overall bit rate : 2 731 Kbps
Writing application : VirtualDubMod 1.5.10.2 (build 2542/release)
Writing library : VirtualDubMod build 2542/release
Video
ID : 0
Format : MPEG-4 Visual
Format profile : Advanced Simple@L5
Format settings, BVOP : Yes
Format settings, QPel : No
Format settings, GMC : No warppoints
Format settings, Matrix : Default (H.263)
Codec ID : XVID
Codec ID/Hint : XviD
Duration : 1h 11mn
Bit rate : 2 333 Kbps
Width : 720 pixels
Height : 304 pixels
Display aspect ratio : 2.35:1
Frame rate : 25.000 fps
Color space : YUV
Chroma subsampling : 4:2:0
Bit depth : 8 bits
Scan type : Progressive
Compression mode : Lossy
Bits/(Pixel*Frame) : 0.426
Stream size : 1.16 GiB (85%)
Writing library : XviD 1.2.1 (UTC 2008-12-04)
Audio #1
ID : 1
Format : AC-3
Format/Info : Audio Coding 3
Mode extension : CM (complete main)
Format settings, Endianness : Big
Codec ID : 2000
Duration : 1h 11mn
Bit rate mode : Constant
Bit rate : 192 Kbps
Channel count : 2 channels
Channel positions : Front: L R
Sampling rate : 48.0 KHz
Bit depth : 16 bits
Compression mode : Lossy
Stream size : 97.8 MiB (7%)
Alignment : Split accross interleaves
Interleave, duration : 40 ms (1.00 video frame)
Interleave, preload duration : 500 ms
Audio #2
ID : 2
Format : AC-3
Format/Info : Audio Coding 3
Mode extension : CM (complete main)
Format settings, Endianness : Big
Codec ID : 2000
Duration : 1h 11mn
Bit rate mode : Constant
Bit rate : 192 Kbps
Channel count : 2 channels
Channel positions : Front: L R
Sampling rate : 48.0 KHz
Bit depth : 16 bits
Compression mode : Lossy
Stream size : 97.8 MiB (7%)
Alignment : Split accross interleaves
Interleave, duration : 40 ms (1.00 video frame)
Interleave, preload duration : 500 ms
Скриншоты
Скачать

Скачать торрент! Во власти призрака / Mengejar Setan (Наято Фио Нуала / Nayato Fio Nuala) [2013, Индонезия, ужасы, DVDRip] DVO (2D)

Как скачивать? · Что такое торрент? · Рейтинг и ограничения

Сайт не распространяет и не хранит электронные версии произведений, а лишь предоставляет доступ к создаваемому пользователями каталогу ссылок на торрент-файлы, которые содержат только списки хеш-сумм

[Профиль] [ЛС]
Показать сообщения:    
Ответить на тему

Текущее время: Сегодня 18:13

Часовой пояс: GMT + 4



Вы не можете начинать темы
Вы не можете отвечать на сообщения
Вы не можете редактировать свои сообщения
Вы не можете удалять свои сообщения
Вы не можете голосовать в опросах
Вы не можете прикреплять файлы к сообщениям
Вы не можете скачивать файлы