Печальный рай (Аркадий Красильщиков) [1992, Мелодрама, триллер, TVRip]

Ответить на тему
 
Автор Сообщение

user ®

Стаж: 7 лет 7 месяцев

Сообщений: 20008

Пост Пост: #1 от 12-Ноя-2014 16:55

[Цитировать]

Печальный рай
Жанр: Мелодрама, триллер
Год выпуска: 1992
Продолжительность: 1:15:37
Режиссёр: Аркадий Красильщиков
В ролях: Кароль Эскюди, Юрий Дормидонтов, Сергей Варчук, Тимофей Сополев, Л. Латю, Жан-Пьер Фритос, Вера Варчук, Светлана Зубченко
Описание: 1.Рандеву началось во Франции, в окрестностях города Монтобан. Русский актёр-кукольник шёл по обочине шоссе и голосовал. Девушка по имени Кристина согласилась подбросить актёра до города, а там даже помогла ему прокормиться и заодно представила своей компании. Так началась французская часть 'рандеву', которое естественным образом продолжилось в Союзе, когда на московском Арбате Кристина случайно увидела знакомых кукол и нисколько не изменившегося Бориса...
2. Действие начинается во Франции, где бродячий кукольник Борис, москвич, знакомится с очаровательной француженкой Кристиной. Их знакомство возобновляется в Москве и герои поселяются в "усадьбе" у Бориса. Трепетные отношения возлюбленных развиваются в борьбе с бандой, скрывающей оружие в развалинах этой "усадьбы".
Сэмпл: https://yadi.sk/i/BuL14GSWcer3C
Качество видео: TVRip
Формат видео: AVI
Видео: 720x576 (1.25:1), 25 fps, DivX Codec 6.2.5 ~2389 kbps avg, 0.23 bit/pixel
Аудио: 48 kHz, MPEG Layer 3, 1 ch, ~128.00 kbps avg
MediaInfo
Печальный рай (1992).avi
Format : DivX
Format/Info : Hack of AVI
File size : 1.34 GiB
Duration : 1h 15mn
Overall bit rate : 2 528 Kbps
Video
ID : 0
Format : MPEG-4 Visual
Format settings, BVOP : 2
Format settings, QPel : No
Format settings, GMC : No warppoints
Format settings, Matrix : Default (H.263)
Muxing mode : Packed bitstream
Codec ID : DX50
Codec ID/Hint : DivX 5
Duration : 1h 15mn
Bit rate : 2 390 Kbps
Width : 720 pixels
Height : 576 pixels
Display aspect ratio : 5:4
Frame rate : 25.000 fps
Standard : PAL
Color space : YUV
Chroma subsampling : 4:2:0
Bit depth : 8 bits
Scan type : Progressive
Compression mode : Lossy
Bits/(Pixel*Frame) : 0.231
Stream size : 1.26 GiB (95%)
Title : Video
Writing library : DivX 6.2.5 (UTC 2006-06-16)
Audio
ID : 1
Format : MPEG Audio
Format version : Version 1
Format profile : Layer 3
Codec ID : 55
Codec ID/Hint : MP3
Duration : 1h 15mn
Bit rate mode : Constant
Bit rate : 128 Kbps
Channel(s) : 1 channel
Sampling rate : 48.0 KHz
Compression mode : Lossy
Stream size : 69.2 MiB (5%)
Alignment : Split accross interleaves
Interleave, duration : 40 ms (1.00 video frame)
Interleave, preload duration : 50 ms
Title : Audio
Скриншоты
Скачать

Скачать торрент!

Как скачивать? · Что такое торрент? · Рейтинг и ограничения

Сайт не распространяет и не хранит электронные версии произведений, а лишь предоставляет доступ к создаваемому пользователями каталогу ссылок на торрент-файлы, которые содержат только списки хеш-сумм

[Профиль] [ЛС]
Показать сообщения:    
Ответить на тему

Текущее время: Сегодня 18:22

Часовой пояс: GMT + 4



Вы не можете начинать темы
Вы не можете отвечать на сообщения
Вы не можете редактировать свои сообщения
Вы не можете удалять свои сообщения
Вы не можете голосовать в опросах
Вы не можете прикреплять файлы к сообщениям
Вы не можете скачивать файлы