Зима мертвецов. Метелица / Winter of the Dead. Meteletsa (Николай Пигарев) [2012, Ужасы, WEB-DLRip-AVC]

Ответить на тему
 
Автор Сообщение

user ®

Стаж: 7 лет 7 месяцев

Сообщений: 20008

Пост Пост: #1 от 12-Ноя-2014 16:55

[Цитировать]

Зима мертвецов. Метелица / Winter of the Dead. Meteletsa
Жанр: Ужасы
Год выпуска: 2012
Продолжительность: 01:26:59
Режиссёр: Николай Пигарев
Субтитры: английские вшитые
В ролях: Энди Треу, Максим Суханов, Светлана Акимова, Андрей Карако, Игорь Диковицкий, Галина Масалович, Александр Одинец, Сергей Широчин, Александр Гринелевич, Майкл Борзенков
Описание: Это лето выдалось ужасным. Жара была, как в аду. И неожиданно, посреди адского пепла, белым снегом повеяла метелица. Среди белых снежных хлопьев и завывающего ветра послышалось грозное рычание русских зомби, бессмысленных и беспощадных. Московский журналист Константин, расследующий феномен летнего снега, и дочь местного олигарха Искра, прячутся в хозяйственном магазине. капитан Игорь Князев заводит единственный оставшийся на ходу танк, а его возлюбленная Даша убегает от разъяренного мужа, который, узнав об измене, намерен с компанией своих братков разделаться и с женой и с любовником не взирая ни на какую погоду… И пока самоотверженный оператор Влад фиксирует странные события на пленку а приходской священник отец Михаил достает из сундука свой верный топор, чтобы с молитвой божьей обрушить его на армию нежити. Встречайте! Первый российский зомби-фильм, снятый согласно всех канонов классики жанра. Бюджет более 1 000 000$. Фильм снят энтузиастами кино и не выпущен в прокат. Смотрите фильм внимательно. В конце вас ждёт сюрприз.
Сэмпл: http://multi-up.com/1012660
Качество видео: WEB-DLRip
Формат видео: MP4
Видео: AVC, 1280x536 (2.39:1) 16:9, 25 fps, ~2189 Kbps
Аудио: 48 kHz, MPEG Layer 3, 2 ch, 192.00 kbps avg
MediaInfo
F:\METELETSA - Winter of the Dead.2012.WEBDL.RR.mp4
General
Complete name : F:\METELETSA - Winter of the Dead.2012.WEBDL.RR.mp4
Format : MPEG-4
Format profile : Base Media
Codec ID : isom
File size : 1.44 GiB
Duration : 1h 27mn
Overall bit rate mode : Variable
Overall bit rate : 2 373 Kbps
Encoded date : UTC 2014-11-07 02:50:54
Tagged date : UTC 2014-11-07 02:50:54
Video #1
ID : 1
Format : AVC
Format/Info : Advanced Video Codec
Format profile : High@L4.2
Format settings, CABAC : Yes
Format settings, ReFrames : 4 frames
Codec ID : avc1
Codec ID/Info : Advanced Video Coding
Duration : 1h 27mn
Bit rate : 2 189 Kbps
Maximum bit rate : 9 361 Kbps
Width : 1 280 pixels
Height : 536 pixels
Display aspect ratio : 2.40:1
Frame rate mode : Constant
Frame rate : 25.000 fps
Color space : YUV
Chroma subsampling : 4:2:0
Bit depth : 8 bits
Scan type : Progressive
Bits/(Pixel*Frame) : 0.128
Stream size : 1.33 GiB (92%)
Writing library : x264 core 142 r2479kMod dd79a61
Encoding settings : cabac=1 / ref=3 / deblock=1:-1:-1 / analyse=0x3:0x113 / me=hex / subme=7 / psy=1 / fade_compensate=0.00 / psy_rd=1.00:0.00 / mixed_ref=1 / me_range=16 / chroma_me=1 / trellis=1 / 8x8dct=1 / cqm=0 / deadzone=21,11 / fast_pskip=1 / chroma_qp_offset=-2 / threads=12 / lookahead_threads=2 / sliced_threads=0 / nr=0 / decimate=1 / interlaced=0 / bluray_compat=0 / constrained_intra=0 / fgo=0 / bframes=3 / b_pyramid=2 / b_adapt=1 / b_bias=0 / direct=1 / weightb=1 / open_gop=0 / weightp=2 / keyint=250 / keyint_min=25 / scenecut=40 / intra_refresh=0 / rc_lookahead=40 / rc=crf / mbtree=1 / crf=20.0000 / qcomp=0.60 / qpmin=0 / qpmax=69 / qpstep=4 / ip_ratio=1.40 / aq=1:1.00
Encoded date : UTC 2014-11-07 02:50:54
Tagged date : UTC 2014-11-07 02:51:09
Audio #2
ID : 2
Format : MPEG Audio
Format version : Version 1
Format profile : Layer 3
Mode : Joint stereo
Mode extension : MS Stereo
Codec ID : 6B
Duration : 1h 27mn
Bit rate mode : Variable
Bit rate : 180 Kbps
Nominal bit rate : 192 Kbps
Maximum bit rate : 230 Kbps
Channel(s) : 2 channels
Sampling rate : 48.0 KHz
Compression mode : Lossy
Stream size : 112 MiB (8%)
Title : mp3#audio@GPAC0.5.1-DEV-rev5366
Writing library : LAME3.99r
Encoding settings : -m j -V 4 -q 2 -lowpass 18.6 --abr 192
Encoded date : UTC 2014-11-07 02:51:08
Tagged date : UTC 2014-11-07 02:51:09
Audio #3
ID : 3
Format : MPEG Audio
Format version : Version 1
Format profile : Layer 3
Mode : Joint stereo
Mode extension : MS Stereo
Codec ID : 6B
Duration : 47ms
Bit rate mode : Variable
Bit rate : 32.0 Kbps
Nominal bit rate : 192 Kbps
Channel(s) : 2 channels
Sampling rate : 48.0 KHz
Compression mode : Lossy
Stream size : 96.0 Bytes (0%)
Title : 1.mp3#audio@GPAC0.5.1-DEV-rev5366
Writing library : LAME3.99r
Encoding settings : -m j -V 4 -q 2 -lowpass 18.6 --abr 192
Encoded date : UTC 2014-11-07 02:51:09
Tagged date : UTC 2014-11-07 02:51:09
Скриншот c названием фильма Скриншоты
Скачать

Скачать торрент!

Как скачивать? · Что такое торрент? · Рейтинг и ограничения

Сайт не распространяет и не хранит электронные версии произведений, а лишь предоставляет доступ к создаваемому пользователями каталогу ссылок на торрент-файлы, которые содержат только списки хеш-сумм

[Профиль] [ЛС]
Показать сообщения:    
Ответить на тему

Текущее время: Сегодня 18:09

Часовой пояс: GMT + 4



Вы не можете начинать темы
Вы не можете отвечать на сообщения
Вы не можете редактировать свои сообщения
Вы не можете удалять свои сообщения
Вы не можете голосовать в опросах
Вы не можете прикреплять файлы к сообщениям
Вы не можете скачивать файлы